<?xml version="1.0" standalone="no"?>
<!DOCTYPE svg PUBLIC "-//W3C//DTD SVG 1.1//EN" "http://www.w3.org/Graphics/SVG/1.1/DTD/svg11.dtd" >
<svg xmlns="http://www.w3.org/2000/svg">
<metadata>Generated by IcoMoon</metadata>
<defs>
<font id="icons" horiz-adv-x="1024">
<font-face units-per-em="1024" ascent="960" descent="-64" />
<missing-glyph horiz-adv-x="1024" />
<glyph unicode="&#x20;" horiz-adv-x="512" d="" />
<glyph unicode="&#x21;" glyph-name="172" d="M771.763 581.53c12.851 5.76 12.749 14.925-0.23 20.378l-521.523 219.571c-12.979 5.478-23.578 1.382-23.578-9.088s0-30.541 0-44.621v-404.634c0-14.080 0-37.12 0-51.2v-225.613c0-14.080 11.366-25.6 25.267-25.6s25.267 11.52 25.267 25.6v248.218c0 14.080 10.522 30.31 23.373 36.045l471.424 210.944z" />
<glyph unicode="&#x2d;" glyph-name="switch" d="M460.134 494.208c-5.043 0-9.856 3.021-11.853 7.987-0.461 1.126-46.464 112.205-133.402 112.205h-177.536c-7.066 0-12.8 5.734-12.8 12.8s5.734 12.8 12.8 12.8h177.536c104.294 0 155.034-122.982 157.133-128.205 2.637-6.554-0.538-14.003-7.091-16.64-1.562-0.666-3.2-0.947-4.787-0.947zM314.854 256h-177.51c-7.066 0-12.8 5.734-12.8 12.8s5.734 12.8 12.8 12.8h177.536c74.266 0 127.616 83.789 184.090 172.493 56.986 89.498 115.917 182.016 202.675 185.907h178.099c7.066 0 12.8-5.734 12.8-12.8s-5.734-12.8-12.8-12.8h-177.536c-72.909-3.251-128.179-90.086-181.658-174.054-57.702-90.624-117.376-184.346-205.696-184.346zM696.013 255.872c-98.816 0-163.098 94.669-165.837 98.765-3.917 5.862-2.33 13.824 3.533 17.741 5.888 3.968 13.85 2.33 17.741-3.533 0.614-0.922 61.44-90.906 150.246-87.27h178.048c7.066 0 12.8-5.734 12.8-12.8s-5.734-12.8-12.8-12.8h-177.536c-2.074-0.077-4.147-0.102-6.195-0.102zM815.718 524.8c-2.586 0-5.171 0.768-7.424 2.381-5.76 4.096-7.091 12.109-2.97 17.843l58.701 82.176-58.675 82.15c-4.122 5.76-2.765 13.747 2.97 17.843 5.76 4.122 13.747 2.765 17.843-2.97l64-89.6c3.2-4.454 3.2-10.419 0-14.874l-64-89.6c-2.509-3.482-6.426-5.35-10.445-5.35zM815.718 166.4c-2.586 0-5.171 0.768-7.424 2.381-5.76 4.096-7.091 12.109-2.97 17.843l58.701 82.176-58.675 82.15c-4.122 5.76-2.765 13.747 2.97 17.843 5.76 4.122 13.747 2.79 17.843-2.97l64-89.6c3.2-4.454 3.2-10.419 0-14.874l-64-89.6c-2.509-3.482-6.426-5.35-10.445-5.35z" />
<glyph unicode="&#x30;" glyph-name="beta" d="M371.277 423.987h-33.408v-38.298h32.819c2.995 0 5.862 0.282 8.602 0.87s5.146 1.562 7.245 2.944c2.074 1.357 3.738 3.226 4.966 5.555 1.229 2.355 1.869 5.35 1.869 8.986 0 7.168-2.022 12.262-6.067 15.334-4.045 3.098-9.395 4.608-16.026 4.608zM382.413 448.794c3.507 2.611 5.274 6.835 5.274 12.698 0 3.251-0.589 5.914-1.766 8.013-1.178 2.074-2.739 3.712-4.685 4.89s-4.198 1.971-6.733 2.432c-2.534 0.461-5.171 0.691-7.91 0.691h-28.723v-32.614h31.053c5.478 0 9.958 1.306 13.491 3.891zM487.68 444.698c-4.429 0-8.090-0.742-11.034-2.227-2.944-1.51-5.274-3.354-7.040-5.581s-2.995-4.557-3.712-7.040c-0.717-2.458-1.126-4.685-1.28-6.63h45.133c-1.306 7.040-3.61 12.365-6.938 16.026-3.328 3.635-8.371 5.453-15.13 5.453zM675.482 407.398c-2.022-0.384-4.122-0.717-6.349-0.973s-4.429-0.589-6.63-0.973c-2.099-0.384-4.147-0.896-6.17-1.562-2.022-0.64-3.763-1.536-5.274-2.637s-2.714-2.509-3.61-4.198c-0.922-1.69-1.357-3.84-1.357-6.451 0-2.483 0.461-4.557 1.357-6.246 0.922-1.69 2.15-3.021 3.712-3.994s3.379-1.664 5.478-2.048c2.074-0.384 4.224-0.589 6.451-0.589 5.478 0 9.702 0.896 12.698 2.739 2.995 1.818 5.197 3.994 6.63 6.528s2.304 5.12 2.637 7.731c0.333 2.586 0.486 4.685 0.486 6.246v10.368c-1.178-1.050-2.637-1.869-4.403-2.432-1.741-0.64-3.635-1.126-5.658-1.51zM717.645 557.286h-411.29c-70.682 0-128-57.318-128-128v0c0-70.682 57.318-128 128-128h411.315c70.682 0 128 57.318 128 128v0c-0.026 70.682-57.318 128-128.026 128zM419.891 384.051c-2.739-5.146-6.4-9.344-11.034-12.595s-9.907-5.658-15.821-7.219c-5.939-1.562-12.006-2.355-18.253-2.355h-67.584v139.469h65.638c6.656 0 12.698-0.589 18.176-1.766s10.163-3.098 14.054-5.76c3.917-2.662 6.938-6.221 9.088-10.65s3.226-9.907 3.226-16.41c0-7.014-1.587-12.902-4.787-17.587-3.174-4.685-7.91-8.525-14.157-11.52 8.602-2.483 15.002-6.81 19.226-12.979 4.224-6.195 6.349-13.645 6.349-22.374 0-7.014-1.382-13.107-4.122-18.253zM471.475 386.099c4.173-4.045 10.163-6.042 17.971-6.042 5.606 0 10.419 1.382 14.438 4.198 4.045 2.79 6.502 5.76 7.424 8.883h24.422c-3.891-12.109-9.907-20.762-17.971-25.984s-17.843-7.808-29.286-7.808c-7.936 0-15.104 1.254-21.478 3.814-6.374 2.534-11.776 6.144-16.205 10.829s-7.859 10.291-10.266 16.794c-2.406 6.502-3.61 13.67-3.61 21.504 0 7.552 1.229 14.566 3.712 21.094 2.483 6.502 5.99 12.134 10.547 16.896s9.984 8.499 16.307 11.238c6.323 2.739 13.312 4.096 20.992 4.096 8.602 0 16.077-1.664 22.451-4.992s11.622-7.782 15.718-13.389c4.096-5.606 7.066-11.981 8.883-19.149s2.483-14.643 1.946-22.451h-72.858c0.41-8.986 2.688-15.488 6.861-19.533zM609.382 444.314h-20.326v-49.997c0-4.685 0.768-7.808 2.355-9.37 1.562-1.562 4.685-2.355 9.37-2.355 1.562 0 3.072 0.051 4.506 0.205 1.434 0.128 2.79 0.307 4.096 0.589v-21.478c-2.355-0.384-4.941-0.666-7.808-0.768-2.867-0.128-5.658-0.205-8.397-0.205-4.301 0-8.371 0.282-12.211 0.87s-7.219 1.715-10.163 3.43c-2.944 1.69-5.248 4.096-6.938 7.219s-2.534 7.219-2.534 12.314v59.571h-16.819v18.56h16.794v30.285h27.75v-30.285h20.326v-18.586zM688.666 361.882c-0.538 1.562-0.947 3.149-1.28 4.787s-0.563 3.302-0.691 4.992c-4.429-4.557-9.651-7.757-15.616-9.574-5.99-1.818-12.109-2.739-18.355-2.739-4.813 0-9.318 0.589-13.466 1.766-4.173 1.178-7.808 2.995-10.931 5.478s-5.581 5.606-7.322 9.37c-1.766 3.789-2.637 8.269-2.637 13.491 0 5.734 0.998 10.445 3.021 14.157s4.634 6.656 7.808 8.883c3.2 2.227 6.835 3.866 10.931 4.992 4.096 1.101 8.243 1.971 12.39 2.637 4.173 0.64 8.269 1.178 12.314 1.562 4.019 0.384 7.603 0.973 10.726 1.766s5.606 1.92 7.424 3.43c1.818 1.485 2.662 3.661 2.534 6.528 0 2.995-0.486 5.376-1.459 7.142s-2.278 3.123-3.891 4.096c-1.638 0.973-3.533 1.638-5.658 1.946-2.15 0.307-4.454 0.486-6.938 0.486-5.478 0-9.779-1.178-12.902-3.507-3.123-2.355-4.941-6.246-5.478-11.725h-27.725c0.384 6.502 2.022 11.904 4.89 16.205s6.502 7.757 10.931 10.368c4.429 2.611 9.421 4.454 14.95 5.555s11.11 1.664 16.717 1.664c5.069 0 10.214-0.358 15.437-1.075 5.197-0.717 9.958-2.125 14.259-4.198s7.808-4.966 10.547-8.678c2.739-3.712 4.096-8.627 4.096-14.746v-52.557c0-4.557 0.256-8.909 0.794-13.082 0.512-4.173 1.434-7.296 2.739-9.37h-28.16z" />
<glyph unicode="&#x31;" glyph-name="home-plat" d="M858.854 806.86h-693.708c-19.072 0-34.586-15.488-34.586-34.586v-545.23c0-19.046 15.514-34.586 34.586-34.586h236.62c7.066 0 12.8 5.76 12.8 12.8 0 7.066-5.734 12.8-12.8 12.8h-236.622c-4.942 0-8.986 4.020-8.986 8.986v379.238h711.654v-379.214c0-4.942-4.020-8.986-8.986-8.986h-258.764c-7.040 0-12.8-5.734-12.8-12.8 0-7.040 5.76-12.8 12.8-12.8h258.764c19.072 0 34.586 15.514 34.586 34.586v545.202c0 19.072-15.488 34.586-34.56 34.586zM156.186 631.884v140.39c0 4.942 4.020 8.986 8.986 8.986h693.708c4.942 0 8.986-4.020 8.986-8.986v-140.39h-711.68zM614.374 373.99c4.992-4.992 13.106-4.992 18.1 0s4.992 13.106 0 18.1l-120.474 120.448c-0.050 0.050-0.102 0.102-0.154 0.154-0.538 0.538-1.126 1.024-1.766 1.46-0.204 0.128-0.462 0.23-0.666 0.358-0.512 0.308-0.998 0.588-1.536 0.818-0.282 0.128-0.562 0.18-0.87 0.282-0.512 0.154-0.998 0.358-1.536 0.462-0.82 0.178-1.664 0.256-2.534 0.256-0.846 0-1.69-0.076-2.534-0.256-0.538-0.102-1.024-0.308-1.536-0.462-0.282-0.102-0.588-0.154-0.87-0.282-0.538-0.23-1.024-0.538-1.536-0.818-0.23-0.128-0.462-0.23-0.666-0.358-0.614-0.436-1.202-0.922-1.766-1.46-0.050-0.050-0.102-0.102-0.154-0.154l-120.474-120.448c-4.992-4.992-4.992-13.106 0-18.1 2.51-2.51 5.786-3.738 9.062-3.738s6.554 1.254 9.062 3.738l98.61 98.61v-247.27c0-60.98-39.654-110.566-88.396-110.566h-101.198c-7.066 0-12.8-5.734-12.8-12.8s5.734-12.8 12.8-12.8h101.198c62.848 0 113.998 61.082 113.998 136.166v247.27l98.636-98.61zM235.264 744.5h-20.454c-19.072 0-34.56-15.488-34.56-34.56v-20.48c0-19.046 15.488-34.586 34.56-34.586h20.454c19.072 0 34.586 15.514 34.586 34.586v20.48c0 19.072-15.514 34.56-34.586 34.56zM244.25 689.486c0-4.94-4.020-8.986-8.986-8.986h-20.454c-4.942 0-8.96 4.020-8.96 8.986v20.48c0 4.914 4.020 8.96 8.96 8.96h20.454c4.942 0 8.986-4.020 8.986-8.96v-20.48zM345.42 744.5h-20.454c-19.072 0-34.586-15.488-34.586-34.56v-20.48c0-19.046 15.514-34.586 34.586-34.586h20.454c19.072 0 34.56 15.514 34.56 34.586v20.48c0 19.072-15.514 34.56-34.56 34.56zM354.38 689.486c0-4.94-4.020-8.986-8.96-8.986h-20.454c-4.94 0-8.986 4.020-8.986 8.986v20.48c0 4.914 4.020 8.96 8.986 8.96h20.454c4.94 0 8.96-4.020 8.96-8.96v-20.48zM803.866 744.5h-363.674c-19.072 0-34.56-15.488-34.56-34.56v-20.48c0-19.046 15.488-34.586 34.56-34.586h363.674c19.046 0 34.586 15.514 34.586 34.586v20.48c0 19.072-15.514 34.56-34.586 34.56zM812.85 689.486c0-4.94-4.020-8.986-8.986-8.986h-363.674c-4.94 0-8.96 4.020-8.96 8.986v20.48c0 4.914 4.020 8.96 8.96 8.96h363.674c4.942 0 8.986-4.020 8.986-8.96v-20.48z" />
<glyph unicode="&#x32;" glyph-name="262" d="M281.6 254.49h-128v130.304c-4.122 1.587-7.808 4.019-10.982 7.194-14.694 14.694-14.643 42.24-14.618 64.41v105.293h179.2v-105.344c0-14.106 0-30.106-3.61-43.699-4.506-16.896-13.491-24.525-21.99-27.827v-130.33zM179.2 280.090h76.8v128h12.8c2.816 0 7.066 0 10.061 11.162 2.739 10.342 2.739 24.55 2.739 37.094v79.744h-128v-79.744c-0.026-15.565-0.051-39.091 7.117-46.285 0.973-0.973 2.406-1.971 5.683-1.971h12.8v-128zM870.4 254.49h-128v144.026c-15.386 8.192-25.6 31.258-25.6 60.774v102.4h179.2v-102.4c-0.026-25.395-9.395-51.456-25.6-60.595v-144.205zM768 280.090h76.8v140.8h12.8c3.558 1.024 12.774 15.795 12.8 38.4v76.8h-128v-76.8c0-26.035 9.728-38.118 12.8-38.4l11.648-1.075 1.152-11.725v-128zM588.8 126.49h-153.6v180.301c-31.923 5.786-51.2 33.664-51.2 75.699v179.2h256v-179.2c0-42.010-19.277-69.914-51.2-75.699v-180.301zM460.8 152.090h102.4v179.2h12.8c33.408 0 38.4 32.077 38.4 51.2v153.6h-204.8v-153.6c0-19.123 4.992-51.2 38.4-51.2h12.8v-179.2zM806.4 587.29c-35.277 0-64 28.723-64 64s28.723 64 64 64 64-28.723 64-64-28.723-64-64-64zM806.4 689.69c-21.171 0-38.4-17.229-38.4-38.4s17.229-38.4 38.4-38.4 38.4 17.229 38.4 38.4-17.229 38.4-38.4 38.4zM217.6 587.29c-35.277 0-64 28.723-64 64s28.723 64 64 64 64-28.723 64-64-28.723-64-64-64zM217.6 689.69c-21.171 0-38.4-17.229-38.4-38.4s17.229-38.4 38.4-38.4 38.4 17.229 38.4 38.4-17.229 38.4-38.4 38.4zM512 587.29c-56.474 0-102.4 45.926-102.4 102.4s45.926 102.4 102.4 102.4 102.4-45.926 102.4-102.4-45.926-102.4-102.4-102.4zM512 766.49c-42.342 0-76.8-34.458-76.8-76.8s34.458-76.8 76.8-76.8 76.8 34.458 76.8 76.8-34.458 76.8-76.8 76.8z" />
<glyph unicode="&#x33;" glyph-name="250" d="M832.5 554.434c-10.457 7.755-24.509 8.4-35.641 1.719l-134.245-80.657-111.377 167.301c-1.21 1.819-3.226 2.66-4.741 4.132l30.89 30.976c6.245 6.235 6.245 16.453 0 22.688l-41.49 41.565c-6.222 6.247-16.458 6.247-22.698 0l-41.49-41.565c-6.245-6.235-6.245-16.453 0-22.688l30.89-30.976c-1.543-1.453-3.531-2.313-4.741-4.132l-111.413-167.301-134.216 80.657c-11.124 6.68-25.211 6.012-35.641-1.719-10.408-7.755-15.151-21-12.019-33.604l64.17-257.062c3.58-14.283 16.434-24.345 31.162-24.345h449.302c14.736 0 27.582 10.057 31.15 24.345l64.188 257.062c3.151 12.593-1.605 25.842-12.019 33.604zM267.783 143.072h513.491v64.245h-513.491z" />
<glyph unicode="&#x34;" glyph-name="251" d="M634.985 411.381v106.643h106.526v-106.643h-106.526zM475.236 411.381v106.643h106.526v-106.643h-106.526zM475.236 251.43v106.643h106.526v-106.643h-106.526zM315.466 411.381v106.643h106.495v-106.643h-106.495zM315.466 251.43v106.643h106.495v-106.643h-106.495zM768.111 677.989h-53.24v53.31h-53.24v-133.291h-53.275v79.982h-159.752v53.31h-53.263v-133.291h-53.263v79.982h-53.263c-29.365 0-53.24-23.921-53.24-53.345v-399.886c0-29.376 23.881-53.321 53.24-53.321h479.292c29.378 0 53.275 23.951 53.275 53.321v399.886c0 29.413-23.898 53.345-53.275 53.345z" />
<glyph unicode="&#x35;" glyph-name="ham-mob" d="M142.132 699.136h739.738v-137.626h-739.738v137.626zM142.132 454.348h739.738v-137.6h-739.738v137.6zM142.132 209.562h739.738v-137.626h-739.738v137.626z" />
<glyph unicode="&#x36;" glyph-name="mob-signin" d="M548.992 824.064c10.854-1.458 21.734-2.688 32.538-4.402 20.71-3.252 40.78-8.782 59.29-18.868 37.478-20.402 45.568-44.8 42.29-82.38-2.996-34.202-14.9-65.998-27.596-97.486-2.1-5.222-1.946-8.678 1.638-13.44 14.054-18.662 13.952-39.834 7.808-61.030-2.406-8.294-8.14-15.642-12.236-23.476-1.202-2.356-2.61-4.89-2.816-7.45-2.816-32.972-14.618-62.208-35.558-87.858-1.536-1.87-2.202-4.966-2.226-7.5-0.154-23.424 0.076-46.848-0.206-70.246-0.076-5.018 1.664-7.066 6.246-8.78 44.39-16.64 88.782-33.28 132.942-50.51 14.26-5.582 27.878-12.826 41.778-19.328 39.578-18.432 64.922-48.59 77.056-90.726 8.524-29.644 15.258-59.392 16.87-90.266 0.434-8.116-1.356-14.31-8.576-18.432-247.040 0-494.054 0-741.094 0 0 7.346 0 14.694 0 22.042 0.486 2.226 1.23 4.404 1.408 6.656 2.714 34.304 11.136 67.15 23.398 99.278 10.010 26.266 26.546 46.72 50.816 60.236 20.582 11.47 41.522 22.656 63.308 31.488 43.084 17.458 86.81 33.306 130.382 49.536 4.992 1.842 6.554 4.224 6.476 9.394-0.256 24.55-0.026 49.126-0.23 73.678 0 2.714-0.768 6.144-2.51 8.038-21.862 24.012-32.87 52.558-35.84 84.558-0.178 2.074-1.408 4.148-2.458 6.042-3.994 7.398-9.548 14.284-11.878 22.144-6.272 21.094-7.142 42.47 6.606 61.234 4.582 6.272 4.916 10.932 2.79 17.818-8.882 28.954-16.742 58.138-15.822 88.91 1.1 36.352 20.020 60.978 52.352 64.282 1.844 0.178 3.61 2.356 5.17 3.814 7.142 6.656 13.44 14.514 21.452 19.89 16.23 10.906 35.098 15.462 54.194 18.638 11.034 1.818 22.194 2.97 33.306 4.428 9.65 0.076 19.302 0.076 28.928 0.076z" />
<glyph unicode="&#x37;" glyph-name="contact-us" d="M629.99 64.998c-21.581 0-42.496 6.298-60.518 18.202-166.63 110.234-312.986 256.563-423.219 423.219-28.621 43.29-22.81 101.325 13.85 137.958l37.555 37.555c29.235 29.261 80.179 29.235 109.389 0l68.48-68.48c30.157-30.157 30.157-79.232 0-109.389l-14.592-14.592c57.088-68.531 122.957-134.426 191.565-191.59l14.592 14.592c29.261 29.235 80.179 29.235 109.414 0l68.454-68.48c30.157-30.182 30.157-79.258 0-109.389l-37.555-37.555c-20.608-20.685-48.128-32.051-77.414-32.051zM252.339 678.989c-13.824 0-26.829-5.376-36.608-15.155l-37.555-37.555c-28.058-28.083-32.538-72.525-10.598-105.728 108.339-163.814 252.211-307.661 416-416 32.538-21.478 78.234-16.922 105.728 10.598l37.555 37.555c20.173 20.173 20.173 53.018 0 73.19l-68.454 68.48c-19.558 19.533-53.683 19.533-73.216 0l-22.81-22.835c-4.659-4.659-12.058-4.992-17.152-0.845-76.083 62.362-149.222 135.475-211.482 211.482-4.173 5.094-3.789 12.518 0.845 17.152l22.835 22.81c20.173 20.198 20.173 53.018 0 73.19l-68.48 68.48c-9.779 9.805-22.784 15.181-36.608 15.181zM883.2 436.122c-7.066 0-12.8 5.734-12.8 12.8 0 197.632-160.768 358.4-358.4 358.4-7.066 0-12.8 5.734-12.8 12.8s5.734 12.8 12.8 12.8c211.738 0 384-172.262 384-384 0-7.066-5.734-12.8-12.8-12.8zM754.099 436.122c-7.066 0-12.8 5.734-12.8 12.8 0 126.413-102.861 229.299-229.299 229.299-7.066 0-12.8 5.734-12.8 12.8s5.734 12.8 12.8 12.8c140.544 0 254.899-114.33 254.899-254.899 0-7.066-5.734-12.8-12.8-12.8zM624.973 436.122c-7.066 0-12.8 5.734-12.8 12.8 0 55.245-44.928 100.173-100.173 100.173-7.066 0-12.8 5.734-12.8 12.8s5.734 12.8 12.8 12.8c69.35 0 125.773-56.422 125.773-125.773 0-7.066-5.734-12.8-12.8-12.8z" />
<glyph unicode="&#x38;" glyph-name="icon-help" d="M512 832c-212.070 0-384-171.93-384-384s171.93-384 384-384 384 171.93 384 384c0 212.070-171.93 384-384 384zM551.322 223.437h-82.33v76.8h82.33v-76.8zM648.090 511.283c-3.072-10.445-7.168-19.456-12.288-27.034s-10.957-14.336-17.51-20.275-13.133-11.776-19.686-17.51c-7.782-6.554-14.95-12.902-21.504-19.046s-12.262-13.005-17.203-20.582c-4.915-7.578-8.704-16.512-11.366-26.726-2.662-10.24-3.968-22.733-3.968-37.478h-66.355c0 18.022 0.922 33.28 2.765 45.773s4.813 23.45 8.909 32.87c4.096 9.421 9.114 17.715 15.078 24.883 5.914 7.168 12.979 14.234 21.171 21.197 6.554 5.734 12.8 11.059 18.739 15.974 5.914 4.915 11.238 10.342 15.974 16.282 4.71 5.914 8.397 12.595 11.059 19.968s3.994 16.179 3.994 26.419c0 12.288-2.15 22.835-6.451 31.642s-9.523 15.872-15.667 21.197c-6.118 5.325-12.698 9.216-19.661 11.674s-13.133 3.686-18.432 3.686c-25.395 0-44.16-8.294-56.218-24.883-12.109-16.589-18.125-38.81-18.125-66.662h-70.042c0 22.528 3.379 43.008 10.138 61.44s16.563 34.202 29.466 47.309c12.902 13.107 28.467 23.245 46.694 30.413s38.605 10.752 61.133 10.752c18.842 0 36.352-2.765 52.557-8.294 16.179-5.53 30.31-13.517 42.368-23.962 12.109-10.445 21.606-23.475 28.57-39.014s10.445-33.178 10.445-52.838c0.026-14.336-1.485-26.726-4.582-37.171z" />
<glyph unicode="&#x39;" glyph-name="lead" d="M626.944 52.122c-2.918 0-5.837 0.998-8.192 2.97-4.352 3.635-5.811 9.702-3.558 14.899l51.789 120.269-86.451 69.504c-4.224 3.405-5.862 9.088-4.045 14.234s6.656 8.55 12.083 8.55h105.984l35.482 106.445c1.664 5.018 6.246 8.474 11.52 8.73 5.12 0.486 10.163-2.765 12.314-7.578l47.821-107.597h106.88c5.453 0 10.317-3.456 12.109-8.627s0.077-10.88-4.224-14.259l-89.6-69.939 42.598-120.525c1.818-5.197 0.128-10.982-4.224-14.362-4.378-3.405-10.394-3.61-14.95-0.538l-108.109 72.064-108.109-72.064c-2.176-1.485-4.659-2.176-7.117-2.176zM742.144 154.522c2.483 0 4.941-0.717 7.091-2.15l83.226-55.475-32.845 92.979c-1.818 5.197-0.128 10.957 4.198 14.362l67.533 52.71h-78.003c-5.069 0-9.626 2.97-11.699 7.603l-37.786 85.043-27.981-83.891c-1.741-5.222-6.63-8.755-12.134-8.755h-78.848l65.715-52.813c4.48-3.61 6.016-9.754 3.738-15.027l-38.554-89.523 79.258 52.838c2.125 1.382 4.608 2.099 7.091 2.099zM499.482 180.122h-332.8c-3.405 0-6.682 1.357-9.088 3.789s-3.738 5.734-3.712 9.139c0.026 3.61 1.050 88.96 16.794 136.422 11.802 35.661 75.315 56.499 148.864 80.64 21.504 7.066 43.674 14.336 64.742 22.093v48.845c-14.029 11.674-49.229 46.976-52.608 109.107-11.75 6.349-19.226 21.862-19.226 41.933 0 10.47 2.202 20.454 6.195 28.109 2.714 5.197 6.272 9.318 10.419 12.186-0.051 0.154-0.077 0.333-0.128 0.486-6.861 23.629-19.584 67.584 1.229 90.214 8.73 9.523 21.504 13.619 38.093 12.211 17.203 32.819 69.939 44.8 113.101 44.8 0 0 0.026 0 0.026 0 47.718 0 107.085-14.618 117.325-55.834 8.934-35.917-5.018-71.219-12.621-90.291 9.754-7.501 15.795-22.246 15.795-40.755 0-10.701-2.15-20.915-6.093-28.749-3.251-6.451-7.757-11.29-13.056-14.234-2.79-59.187-31.309-87.066-44.851-97.075v-61.056c5.99-2.304 11.853-4.582 17.587-6.81 17.050-6.63 33.152-12.902 49.869-18.432l-8.013-24.294c-17.152 5.658-33.664 12.083-51.149 18.893-8.243 3.2-16.717 6.502-25.6 9.856-4.992 1.869-8.294 6.656-8.294 11.981v76.8c0 4.813 2.714 9.242 7.014 11.418 1.434 0.768 38.067 21.094 38.067 88.294 0 7.066 5.734 12.8 12.8 12.8 1.536 0 6.144 7.322 6.144 20.634s-4.608 20.634-6.144 20.634c-7.066 0-12.8 5.734-12.8 12.8 0 4.326 1.715 8.678 4.864 16.563 6.502 16.358 18.637 46.822 11.648 74.88-5.248 21.094-44.134 36.403-92.493 36.403 0 0 0 0-0.026 0-48.333 0-87.219-15.309-92.442-36.403-1.664-6.656-8.294-10.803-14.95-9.472-8.576 1.715-19.891 2.637-24.96-2.893-11.059-12.032 0.256-51.072 4.506-65.766 2.483-8.576 3.507-12.211 3.507-15.642 0-7.066-5.734-12.8-12.8-12.8-1.894 0-6.17-7.373-6.17-19.482s4.275-19.482 6.17-19.482c7.066 0 12.8-5.734 12.8-12.8 0-68.659 45.338-100.582 47.258-101.914 3.482-2.406 5.606-6.374 5.606-10.598v-64c0-5.325-3.277-10.086-8.243-11.955-24.013-9.114-49.485-17.485-74.112-25.574-58.496-19.2-124.8-40.96-132.557-64.358-11.059-33.382-14.259-90.266-15.155-115.712h319.667v-25.549z" />
<glyph unicode="&#x3c;" glyph-name="globe-lines" d="M510.976 64c-211.174 0-382.976 175.898-382.976 392.090 0 205.645 158.003 367.104 367.539 375.578 5.53 0.23 11.034 0.333 16.64 0.333 211.635 0 383.821-171.648 383.821-382.618 0-212.506-172.723-385.382-385.024-385.382zM512.179 806.4c-5.248 0-10.445-0.102-15.616-0.307-195.533-7.91-342.963-158.362-342.963-350.003 0-202.086 160.307-366.49 357.376-366.49 198.195 0 359.424 161.408 359.424 359.782 0 196.864-160.691 357.018-358.221 357.018zM485.786 69.427c-196.224 261.606-195.891 545.024 0.845 758.118l18.79-17.382c-190.464-206.336-190.157-470.733 0.845-725.402l-20.48-15.334zM538.547 69.53l-20.48 15.36c190.976 254.643 191.283 518.989 0.845 725.299l18.79 17.382c196.71-213.12 197.018-496.461 0.845-758.042zM197.171 268.8h632.013v-25.6h-632.013v25.6zM176.666 627.2h668.083v-25.6h-668.083v25.6zM141.235 448h741.709v-25.6h-741.709v25.6z" />
<glyph unicode="&#x3e;" glyph-name="signout" d="M498.739 65.382c-204.672 0-371.2 166.528-371.2 371.2s166.528 371.2 371.2 371.2 371.2-166.528 371.2-371.2-166.528-371.2-371.2-371.2zM498.739 782.182c-190.566 0-345.6-155.034-345.6-345.6s155.034-345.6 345.6-345.6 345.6 155.034 345.6 345.6-155.034 345.6-345.6 345.6zM498.739 278.502c-7.066 0-12.8 5.734-12.8 12.8v306.637c0 7.066 5.734 12.8 12.8 12.8s12.8-5.734 12.8-12.8v-306.662c0-7.040-5.734-12.774-12.8-12.774z" />
<glyph unicode="&#x41;" glyph-name="association" d="M268.8 60.16c-79.744 0-144.64 64.896-144.64 144.64s64.896 144.64 144.64 144.64 144.64-64.896 144.64-144.64-64.896-144.64-144.64-144.64zM268.8 316.16c-61.389 0-111.36-49.971-111.36-111.36s49.971-111.36 111.36-111.36 111.36 49.971 111.36 111.36-49.971 111.36-111.36 111.36zM755.2 60.16c-79.744 0-144.64 64.896-144.64 144.64s64.896 144.64 144.64 144.64 144.64-64.896 144.64-144.64-64.896-144.64-144.64-144.64zM755.2 316.16c-61.389 0-111.36-49.971-111.36-111.36s49.971-111.36 111.36-111.36 111.36 49.971 111.36 111.36-49.971 111.36-111.36 111.36zM512 546.56c-79.744 0-144.64 64.896-144.64 144.64s64.896 144.64 144.64 144.64 144.64-64.896 144.64-144.64-64.896-144.64-144.64-144.64zM512 802.56c-61.389 0-111.36-49.971-111.36-111.36s49.971-111.36 111.36-111.36 111.36 49.971 111.36 111.36-49.971 111.36-111.36 111.36zM311.2 326.697l128.639 257.507 29.772-14.873-128.639-257.507-29.772 14.873zM554.329 569.289l29.766 14.883 128.725-257.45-29.766-14.883-128.725 257.45zM396.8 221.44h230.4v-33.28h-230.4v33.28z" />
<glyph unicode="&#x42;" glyph-name="icons-banner" d="M281.318 325.606l-6.349 0.691 2.893 26.419c0.102 1.050 0.717 1.946 1.638 2.458 0.922 0.486 2.022 0.512 2.944 0.077l11.981-5.862 0.128 23.424c0 1.28 0.794 2.432 1.971 2.944s2.56 0.23 3.482-0.691l26.522-26.189-4.506-4.557-21.12 20.864-0.128-20.915c0-1.101-0.563-2.125-1.51-2.688-0.896-0.563-2.099-0.64-3.098-0.154l-12.442 6.118-2.406-21.939zM268.979 301.952l-36.147 81.024 80.896 36.275 36.275-81.075-81.024-36.224zM241.28 379.75l30.925-69.35 69.325 31.002-31.027 69.376-69.222-31.027zM265.856 316.954l-2.611 5.837 75.085 33.587 2.611-5.837zM264.96 358.554c-4.096 0-7.987 2.355-9.779 6.323-2.406 5.376 0 11.699 5.402 14.106s11.725-0.026 14.106-5.402 0-11.699-5.402-14.106c-1.408-0.614-2.893-0.922-4.326-0.922zM264.934 373.53c-0.589 0-1.203-0.128-1.766-0.384-1.050-0.461-1.843-1.306-2.253-2.381s-0.384-2.227 0.102-3.277c0.461-1.050 1.306-1.843 2.381-2.253s2.227-0.358 3.277 0.102c1.050 0.461 1.843 1.306 2.253 2.381s0.384 2.227-0.102 3.277c-0.461 1.050-1.306 1.843-2.381 2.253-0.486 0.179-0.998 0.282-1.51 0.282zM739.482 287.36h-366.106c-1.766 0-3.2 1.434-3.2 3.2v232.397c0 1.766 1.434 3.2 3.2 3.2h366.106c1.766 0 3.2-1.434 3.2-3.2v-232.397c0-1.766-1.434-3.2-3.2-3.2zM376.576 293.76h359.706v225.997h-359.706v-225.997zM739.482 391.962h-362.931c-1.766 0-3.2 1.434-3.2 3.2s1.434 3.2 3.2 3.2h362.931c1.766 0 3.2-1.434 3.2-3.2s-1.434-3.2-3.2-3.2zM305.229 440.986l-5.555 3.2 8.755 15.206-15.206 8.73 3.2 5.555 17.971-10.342c0.717-0.435 1.254-1.126 1.485-1.946s0.102-1.69-0.307-2.432l-10.342-17.971zM269.542 414.438l-6.4 0.102c0.794 48.051 48.922 49.408 49.408 49.434l0.102-6.4c-1.715-0.026-42.419-1.306-43.11-43.136zM799.104 180.813h-589.158c-26.906 0-48.358 15.616-49.254 16.282l-1.459 1.075v10.496h289.971v-13.056h110.618v13.056h289.971v-10.496l-1.459-1.075c-0.896-0.64-22.374-16.282-49.229-16.282zM167.040 201.498c5.786-3.712 22.963-13.491 42.906-13.491h589.107c19.942 0 37.12 9.779 42.931 13.491h-274.97v-13.056h-125.005v13.056h-274.97zM826.24 205.082h-7.194v353.485c0 24.013-19.533 43.546-43.546 43.546h-541.952c-24.013 0-43.52-19.533-43.52-43.546v-353.485h-7.245v353.485c0 27.981 22.758 50.714 50.714 50.714h541.978c27.955 0 50.714-22.758 50.714-50.714v-353.485h0.051zM800.102 227.61h-591.206v355.584h591.206v-355.584zM216.090 234.778h576.819v341.222h-576.819v-341.222zM719.923 414.566h-326.963v93.338h326.938v-93.338zM399.36 420.966h314.138v80.538h-314.138v-80.538zM398.771 417.075l-5.581 3.149 49.792 87.731 5.581-3.149zM398.95 453.914l-5.581 3.149 28.877 50.893 5.581-3.149zM419.507 417.075l-5.581 3.149 49.792 87.731 5.581-3.149zM440.243 417.075l-5.581 3.149 49.792 87.731 5.581-3.149zM460.979 417.075l-5.581 3.149 49.766 87.731 5.581-3.149zM481.69 417.075l-5.555 3.149 49.766 87.731 5.581-3.149zM502.426 417.075l-5.555 3.149 49.766 87.731 5.581-3.149zM523.187 417.075l-5.581 3.149 49.766 87.731 5.581-3.149zM543.898 417.075l-5.581 3.149 49.792 87.731 5.555-3.149zM564.634 417.075l-5.581 3.149 49.792 87.731 5.555-3.149zM585.37 417.075l-5.581 3.149 49.792 87.731 5.581-3.149zM606.106 417.075l-5.581 3.149 49.766 87.731 5.581-3.149zM626.816 417.075l-5.555 3.149 49.766 87.731 5.581-3.149zM647.552 417.075l-5.555 3.149 49.766 87.731 5.581-3.149zM668.288 415.795l-5.581 3.149 49.792 87.731 5.581-3.149zM689.203 418.458l-5.581 3.149 28.877 50.893 5.581-3.174z" />
<glyph unicode="&#x43;" glyph-name="close" d="M521.062 139.316c-170.188 0-308.658 138.47-308.658 308.686s138.47 308.66 308.658 308.66 308.686-138.47 308.686-308.66-138.496-308.686-308.684-308.686zM521.062 731.058c-156.082 0-283.060-126.976-283.060-283.058s126.976-283.086 283.060-283.086c156.082 0 283.084 126.976 283.084 283.086 0 156.082-127.002 283.058-283.086 283.058zM404.838 318.95c-3.276 0-6.554 1.254-9.062 3.738-4.992 4.992-4.992 13.106 0 18.1l221.902 221.9c4.992 4.992 13.106 4.992 18.1 0s4.992-13.106 0-18.098l-221.902-221.902c-2.484-2.482-5.76-3.738-9.036-3.738zM637.312 318.95c-3.278 0-6.554 1.254-9.062 3.738l-221.902 221.902c-4.992 4.992-4.992 13.106 0 18.098s13.108 4.992 18.098 0l221.9-221.902c4.992-4.992 4.992-13.106 0-18.1-2.51-2.482-5.786-3.738-9.038-3.738z" />
<glyph unicode="&#x44;" glyph-name="done-2" d="M424.858 315.52c-3.276 0-6.554 1.254-9.062 3.738l-83.482 83.534c-4.992 4.992-4.992 13.106 0 18.1s13.106 4.992 18.098 0l74.726-74.778 241.382 225.306c5.172 4.812 13.286 4.53 18.1-0.614 4.812-5.17 4.53-13.286-0.614-18.098l-250.444-233.754c-2.432-2.278-5.556-3.43-8.704-3.43zM508.338 48.358c-218.802 0-396.8 177.998-396.8 396.8s177.998 396.8 396.8 396.8 396.8-177.996 396.8-396.8-177.996-396.8-396.8-396.8zM508.338 816.358c-204.672 0-371.2-166.528-371.2-371.2s166.528-371.2 371.2-371.2c204.698 0 371.2 166.528 371.2 371.2s-166.502 371.2-371.2 371.2z" />
<glyph unicode="&#x45;" glyph-name="picker" d="M754.125 739.072l-373.274-373.146-104.346 104.474-104.474-104.474 208.819-208.998 477.773 477.645z" />
<glyph unicode="&#x46;" glyph-name="magnifier" d="M896.998 137.267l-244.275 244.122c31.386 46.080 49.766 101.658 49.766 161.485 0 158.669-129.050 287.795-287.718 287.795s-287.77-129.126-287.77-287.795c0-158.618 129.075-287.693 287.77-287.693 59.802 0 115.354 18.355 161.434 49.69l244.301-244.147 76.493 76.544zM235.187 542.874c0 99.072 80.538 179.635 179.584 179.635 99.021 0 179.584-80.563 179.584-179.635 0-98.97-80.589-179.533-179.584-179.533-99.046 0-179.584 80.563-179.584 179.533z" />
<glyph unicode="&#x47;" glyph-name="icons-blue-print" d="M856.243 291.456h-688.538v423.91h251.648v-26.931h-224.717v-370.048h634.675v370.048h-251.162v26.931h278.093zM591.616 661.99h-185.728v79.846h185.728v-79.846zM432.819 688.922h131.866v25.984h-131.866v-25.984zM856.064 238.515h-688.128c-25.754 0-39.936 14.182-39.936 39.936s14.182 39.936 39.936 39.936h688.128c25.754 0 39.91-14.182 39.91-39.936s-14.182-39.936-39.91-39.936zM167.936 291.456c-10.957 0-13.005-2.074-13.005-13.005 0-10.957 2.074-13.005 13.005-13.005h688.128c10.931 0 12.979 2.074 12.979 13.005s-2.074 13.005-12.979 13.005h-688.128zM485.274 251.981h26.931v-211.738h-26.931v211.738zM219.797 46.423l108.187 211.737 23.982-12.254-108.187-211.737-23.982 12.254zM645.514 245.835l23.982 12.251 108.163-211.737-23.982-12.251-108.163 211.737zM485.274 807.782h26.931v-79.411h-26.931v79.411z" />
<glyph unicode="&#x48;" glyph-name="icons-gear" d="M562.739 52.582h-128c-7.066 0-12.8 5.734-12.8 12.8v96.512c-4.454 1.741-10.214 3.763-16.205 5.862-14.874 5.248-32.742 11.52-47.488 19.021l-67.302-67.302c-4.992-4.992-13.107-4.992-18.099 0l-91.315 91.264c-2.406 2.406-3.738 5.658-3.738 9.062s1.357 6.656 3.738 9.062l67.328 67.302c-13.235 26.24-22.144 63.411-27.187 89.242h-94.131c-7.066 0-12.8 5.734-12.8 12.8v102.4c0 7.066 5.734 12.8 12.8 12.8h96.461c1.741 4.48 3.789 10.266 5.888 16.282 5.222 14.874 11.494 32.691 18.97 47.411l-67.302 67.328c-4.992 4.992-4.992 13.107 0 18.099l91.29 91.315c4.992 4.992 13.107 4.992 18.099 0l67.328-67.277c14.72 7.475 32.589 13.747 47.462 18.944 5.965 2.099 11.75 4.122 16.205 5.862v96.41c0 7.066 5.734 12.8 12.8 12.8h128c7.066 0 12.8-5.734 12.8-12.8v-96.461c4.454-1.741 10.24-3.763 16.205-5.862 14.874-5.222 32.717-11.494 47.437-18.944l67.302 67.277c4.992 4.992 13.107 4.992 18.099 0l91.315-91.315c2.406-2.406 3.738-5.658 3.738-9.062s-1.357-6.656-3.738-9.062l-67.507-67.507c5.453-12.16 10.138-28.058 14.362-42.445 2.022-6.835 4.531-15.386 6.528-21.069h100.634c7.066 0 12.8-5.734 12.8-12.8v-102.4c0-7.066-5.734-12.8-12.8-12.8h-93.363c-6.298-50.048-15.821-69.786-27.648-89.549l66.995-67.021c4.992-4.992 4.992-13.107 0-18.099l-91.29-91.264c-4.992-4.992-13.107-4.992-18.099 0l-67.328 67.277c-14.72-7.475-32.563-13.773-47.437-18.995-5.965-2.099-11.75-4.122-16.205-5.862v-96.512c0-7.014-5.734-12.723-12.8-12.723zM447.539 78.182h102.4v92.006c0 4.685 2.56 9.011 6.682 11.238 5.658 3.098 14.925 6.349 26.65 10.47 16.896 5.939 37.914 13.338 51.482 21.632 5.018 3.072 11.52 2.33 15.718-1.869l65.101-65.050 73.19 73.165-65.050 65.075c-4.173 4.173-4.941 10.675-1.869 15.718 14.541 23.808 24.294 39.782 30.592 98.995 0.691 6.502 6.17 11.443 12.723 11.443h91.981v76.8h-87.245c-2.662-1.408-5.581-1.792-7.936-1.613-12.032 1.126-15.462 12.8-23.757 41.062-4.71 16-10.573 35.942-16.358 45.466-3.072 5.043-2.304 11.546 1.869 15.718l65.050 65.050-73.216 73.216-65.075-65.050c-4.173-4.198-10.675-4.966-15.718-1.894-13.594 8.294-34.611 15.667-51.482 21.606-11.725 4.122-20.992 7.373-26.65 10.445-4.122 2.253-6.682 6.554-6.682 11.238v91.93h-102.4v-91.981c0-4.685-2.56-9.011-6.682-11.238-5.658-3.072-14.925-6.323-26.65-10.445-16.896-5.914-37.914-13.312-51.507-21.581-5.043-3.072-11.546-2.33-15.718 1.869l-65.075 65.050-73.19-73.216 65.075-65.075c4.198-4.198 4.941-10.675 1.869-15.718-8.294-13.568-15.693-34.586-21.606-51.456-4.147-11.75-7.398-21.043-10.496-26.726-2.253-4.096-6.554-6.656-11.238-6.656h-91.981v-76.8h91.955c6.195 0 11.52-4.454 12.595-10.547 7.962-44.518 19.174-80.922 30.746-99.866 3.072-5.043 2.304-11.546-1.869-15.718l-65.075-65.075 73.216-73.165 65.075 65.075c4.173 4.224 10.701 4.941 15.718 1.869 13.594-8.32 34.637-15.718 51.558-21.658 11.725-4.122 20.966-7.373 26.624-10.47 4.122-2.227 6.682-6.554 6.682-11.238v-92.032zM498.739 282.982c-84.71 0-153.6 68.89-153.6 153.6s68.89 153.6 153.6 153.6 153.6-68.89 153.6-153.6-68.89-153.6-153.6-153.6zM498.739 564.582c-70.579 0-128-57.421-128-128s57.421-128 128-128 128 57.421 128 128-57.421 128-128 128z" />
<glyph unicode="&#x49;" glyph-name="info" d="M501.582 48.282c-214.886 0-386.176 171.29-389.964 389.966-1.844 105.652 38.912 206.054 114.764 282.752 75.366 76.186 175.438 119.142 281.754 120.986l7.014 0.050c214.86 0 386.126-171.29 389.914-389.964 3.788-218.752-174.080-399.846-396.492-403.738l-6.988-0.052zM515.174 816.434l-6.58-0.050c-99.61-1.716-193.382-41.984-264.012-113.382-70.962-71.73-109.082-165.606-107.366-264.294 3.558-204.57 163.61-364.8 364.366-364.8l6.554 0.052c208.308 3.634 374.912 173.056 371.354 377.678-3.558 204.544-163.584 364.8-364.314 364.8zM508.366 380.058c-7.066 0-12.8 5.734-12.8 12.8v244.378c0 7.066 5.734 12.8 12.8 12.8s12.8-5.734 12.8-12.8v-244.378c0-7.066-5.734-12.8-12.8-12.8zM508.954 223.028h-0.588c-25.856 0-47.258 21.018-47.718 46.848-0.23 12.75 4.532 24.832 13.414 33.996 8.858 9.164 20.762 14.31 33.486 14.514 26.676 0 48.050-21.018 48.512-46.874 0.486-26.266-20.53-48.026-46.848-48.512-0.102 0.026-0.178 0.026-0.256 0.026zM508.366 292.788c-6.322-0.076-11.802-2.482-15.924-6.706-4.122-4.25-6.322-9.856-6.222-15.744 0.204-12.16 9.932-21.708 22.118-21.708l0.588-12.8-0.23 12.8c12.212 0.23 21.938 10.292 21.734 22.426-0.206 12.006-10.112 21.734-22.068 21.734z" />
<glyph unicode="&#x4a;" glyph-name="261" d="M854.707 468.71l-342.63 365.261-342.605-365.158h221.696v-405.734h241.843v405.734z" />
<glyph unicode="&#x4b;" glyph-name="coupons" d="M547.124 137.268h-243.2c-95.462 0-179.2 83.738-179.2 179.2v102.4c0 170.062 110.336 230.4 204.8 230.4h102.4c37.76 0 76.8-23.936 76.8-64v-25.6c0-41.574-39.578-64-76.8-64h-55.398c-11.214-25.958-49.382-102.4-111.002-102.4-7.066 0-12.8 5.734-12.8 12.8s5.734 12.8 12.8 12.8c45.67 0 80.742 67.866 90.394 94.028 1.87 5.018 6.656 8.37 12.006 8.37h64c24.832 0 51.2 13.466 51.2 38.4v25.6c0 24.038-26.036 38.4-51.2 38.4h-102.4c-29.926 0-179.2-9.882-179.2-204.8v-102.4c0-81.818 71.782-153.6 153.6-153.6h243.2c7.066 0 12.8-5.734 12.8-12.8s-5.734-12.8-12.8-12.8zM675.124 239.668h-128c-7.066 0-12.8 5.734-12.8 12.8s5.734 12.8 12.8 12.8h128c19.738 0 38.4 18.662 38.4 38.4s-18.662 38.4-38.4 38.4h-217.6c-7.066 0-12.8 5.734-12.8 12.8s5.734 12.8 12.8 12.8h217.6c34.1 0 64-29.9 64-64s-29.9-64-64-64zM542.668 137.268h-46.746c-7.066 0-12.8 5.734-12.8 12.8s5.734 12.8 12.8 12.8h46.746c19.738 0 30.054 19.302 30.054 38.4s-10.318 38.4-30.054 38.4h-85.146c-7.066 0-12.8 5.734-12.8 12.8s5.734 12.8 12.8 12.8h85.146c31.718 0 55.654-27.52 55.654-64s-23.91-64-55.654-64zM881.614 348.466h-171.11c-7.066 0-12.8 5.734-12.8 12.8s5.734 12.8 12.8 12.8h158.31v82.74c-44.11 6.246-78.158 44.238-78.158 90.062s34.048 83.814 78.158 90.062v82.74h-540.954v-69.018c0-7.066-5.734-12.8-12.8-12.8s-12.8 5.734-12.8 12.8v81.818c0 7.066 5.734 12.8 12.8 12.8h566.578c7.066 0 12.8-5.734 12.8-12.8v-107.442c0-7.066-5.734-12.8-12.8-12.8-36.044 0-65.356-29.312-65.356-65.356s29.312-65.356 65.356-65.356c7.066 0 12.8-5.734 12.8-12.8v-107.444c-0.026-7.092-5.734-12.8-12.826-12.8zM686.26 426.624h-214.912c-7.066 0-12.8 5.734-12.8 12.8v57.652c0 7.066 5.734 12.8 12.8 12.8s12.8-5.734 12.8-12.8v-44.85h189.312v189.262h-189.312v-16.614c0-7.066-5.734-12.8-12.8-12.8s-12.8 5.734-12.8 12.8v29.414c0 7.066 5.734 12.8 12.8 12.8h214.912c7.066 0 12.8-5.734 12.8-12.8v-214.862c0-7.092-5.734-12.8-12.8-12.8zM774.17 703.154h-19.534v-19.534h19.534v19.534zM774.17 644.558h-19.534v-19.534h19.534v19.534zM774.17 585.932h-19.534v-19.534h19.534v19.534zM774.17 527.308h-19.534v-19.532h19.534v19.532zM774.17 468.71h-19.534v-19.534h19.534v19.534zM774.17 410.112h-19.534v-19.558h19.534v19.558zM627.66 563.354h-97.69c-7.066 0-12.8 5.734-12.8 12.8s5.734 12.8 12.8 12.8h97.69c7.066 0 12.8-5.734 12.8-12.8s-5.734-12.8-12.8-12.8zM627.66 504.754h-97.69c-7.066 0-12.8 5.734-12.8 12.8s5.734 12.8 12.8 12.8h97.69c7.066 0 12.8-5.734 12.8-12.8s-5.734-12.8-12.8-12.8z" />
<glyph unicode="&#x4c;" glyph-name="lock" d="M660.302 493.85v128.332l-0.206 2.432c-14.158 78.106-76.98 134.81-149.376 134.81s-135.218-56.678-149.376-134.81l-0.204-130.764c-30.72-35.046-49.408-80.87-49.408-131.020 0-109.722 89.266-198.99 198.988-198.99s198.99 89.266 198.99 198.99c0 50.15-18.688 95.974-49.408 131.020zM510.694 731.93c58.752 0 109.926-46.618 122.112-111.002v-101.146c-33.74 26.318-76.11 42.036-122.112 42.036-45.978 0-88.37-15.718-122.086-42.034v101.146c12.186 64.41 63.36 111.002 122.086 111.002zM510.694 191.334c-94.566 0-171.494 76.928-171.494 171.494s76.928 171.494 171.494 171.494c94.566 0 171.52-76.928 171.52-171.494s-76.928-171.494-171.52-171.494zM510.694 388.914c-14.388 0-26.086-11.698-26.086-26.086 0-9.344 4.966-17.486 12.338-22.092v-64.358h27.494v64.358c7.398 4.608 12.34 12.774 12.34 22.092 0.026 14.388-11.674 26.086-26.086 26.086zM510.694 364.236c0.768 0 1.408-0.614 1.408-1.382 0-1.51-2.79-1.536-2.79 0 0 0.742 0.64 1.382 1.382 1.382z" />
<glyph unicode="&#x4d;" glyph-name="no-image" d="M370.126 584.242c0 0-0.026 0-0.050 0-3.534 0.026-6.374 2.918-6.348 6.452l0.128 16.486c0 8.012-7.858 19.2-15.59 19.2h-16.846c-7.194 0-17.92-11.52-17.92-19.226v-16.486c0-3.534-2.868-6.4-6.4-6.4s-6.4 2.866-6.4 6.4v16.486c0 14.976 16.358 32.026 30.72 32.026h16.846c15.718 0 28.39-17.536 28.39-32.026l-0.128-16.538c-0.026-3.534-2.892-6.374-6.4-6.374zM708.992 280.934h-401.306c-32.358 1.076-50.074 17.996-50.074 47.616v220.75c0 30.362 17.69 47.744 48.538 47.744h132.044l33.638 35.738c7.118 10.804 18.79 21.71 33.126 30.694 1.024 0.64 2.202 0.974 3.404 0.974h106.214c1.202 0 2.38-0.334 3.404-0.974 14.362-9.036 26.062-19.918 33.792-31.514l20.326-34.894h37.632c34.126 0 49.356-12.366 49.356-40.090v-228.404c0-29.62-17.716-46.542-49.87-47.616-0.076-0.026-0.154-0.026-0.23-0.026zM306.126 584.242c-24.038 0-35.738-11.442-35.738-34.944v-220.75c0-22.912 11.904-33.972 37.478-34.816h400.998c25.524 0.896 37.376 11.956 37.376 34.816v228.404c0 17.69-5.836 27.29-36.558 27.29h-41.268c-2.278 0-4.378 1.202-5.53 3.174l-21.99 37.734c-6.298 9.394-16.076 18.638-28.212 26.47h-102.476c-12.108-7.834-21.914-17.074-28.416-26.802l-36.198-38.578c-1.202-1.28-2.892-2.022-4.658-2.022h-134.81zM558.9 323.046c-68.558 0-124.338 55.782-124.338 124.366s55.782 124.366 124.338 124.366 124.34-55.782 124.34-124.366-55.782-124.366-124.338-124.366zM558.9 558.976c-61.516 0-111.538-50.048-111.538-111.564s50.048-111.566 111.538-111.566 111.538 50.048 111.538 111.566-50.048 111.566-111.538 111.566zM558.9 373.606c-40.678 0-73.806 33.1-73.806 73.806s33.1 73.806 73.806 73.806c40.704 0 73.804-33.102 73.804-73.806 0-40.678-33.126-73.806-73.806-73.806zM558.9 508.416c-33.638 0-61.004-27.366-61.004-61.006s27.366-61.004 61.004-61.004 61.004 27.366 61.004 61.004-27.366 61.004-61.004 61.004zM331.418 466.278c-22.118 0-40.090 17.998-40.090 40.090s17.998 40.090 40.090 40.090 40.090-17.998 40.090-40.090-17.972-40.090-40.090-40.090zM331.418 533.682c-15.052 0-27.29-12.262-27.29-27.29s12.262-27.29 27.29-27.29 27.29 12.262 27.29 27.29-12.238 27.29-27.29 27.29zM508.338 53.12c-105.318 0-204.314 41.010-278.784 115.482s-115.508 173.466-115.508 278.81c0 105.318 41.038 204.314 115.508 278.784s173.466 115.506 278.784 115.506c105.318 0 204.338-41.036 278.81-115.506 74.47-74.446 115.482-173.466 115.482-278.784s-41.010-204.338-115.482-278.81c-74.47-74.47-173.466-115.482-278.81-115.482zM508.338 828.876c-101.888 0-197.71-39.68-269.748-111.744-72.064-72.038-111.744-167.834-111.744-269.748 0-101.888 39.68-197.71 111.744-269.748 72.038-72.038 167.834-111.718 269.748-111.718s197.71 39.68 269.748 111.718 111.718 167.86 111.718 269.748-39.68 197.71-111.718 269.748c-72.038 72.064-167.834 111.744-269.748 111.744zM782.618 166.732c-1.638 0-3.278 0.614-4.53 1.87l-548.53 548.53c-2.508 2.51-2.508 6.554 0 9.062s6.554 2.51 9.062 0l548.53-548.53c2.51-2.51 2.51-6.554 0-9.062-1.254-1.254-2.894-1.87-4.53-1.87z" />
<glyph unicode="&#x4e;" glyph-name="notice" d="M895.667 81.818l-373.606 747.213c-4.352 8.678-18.56 8.678-22.912 0l-375.014-750.054c-1.997-3.968-1.766-8.678 0.563-12.442s6.451-6.067 10.88-6.067h750.054c0.154 0 0.333 0 0.512 0 7.066 0 12.8 5.734 12.8 12.8 0 3.277-1.254 6.272-3.277 8.55zM156.288 86.067l354.304 708.634 354.304-708.634h-708.608zM534.707 215.629c0-13.318-10.797-24.115-24.115-24.115s-24.115 10.797-24.115 24.115c0 13.318 10.797 24.115 24.115 24.115s24.115-10.797 24.115-24.115zM491.392 557.107v-238.95c0-10.598 8.602-19.2 19.2-19.2s19.2 8.602 19.2 19.2v238.95c0 10.598-8.602 19.2-19.2 19.2s-19.2-8.602-19.2-19.2z" />
<glyph unicode="&#x4f;" glyph-name="260" d="M850.637 754.739h-674.816c-25.421 0-46.003-20.608-46.003-46.003v-521.446c0-25.421 20.608-46.003 46.003-46.003h674.816c25.421 0 46.003 20.608 46.003 46.003v521.421c0 25.421-20.608 46.029-46.003 46.029zM888.96 187.29c0-21.146-17.203-38.349-38.349-38.349h-674.79c-21.146 0-38.349 17.203-38.349 38.349v521.421c0 21.146 17.203 38.349 38.349 38.349h674.816c21.146 0 38.349-17.203 38.349-38.349v-521.421zM503.859 708.71h340.813v-7.68h-340.813v7.68zM503.859 662.707h340.813v-7.68h-340.813v7.68zM503.859 616.704h340.813v-7.68h-340.813v7.68zM503.859 570.701h340.813v-7.68h-340.813v7.68zM503.859 524.672h340.813v-7.68h-340.813v7.68zM503.859 478.669h340.813v-7.68h-340.813v7.68zM175.821 494.003h276.045v214.707h-276.045v-214.707zM183.501 701.056h260.71v-199.373h-260.71v199.373zM503.859 432.666h340.813v-7.68h-340.813v7.68zM503.859 386.662h340.813v-7.68h-340.813v7.68zM503.859 340.634h340.813v-7.68h-340.813v7.68zM503.859 294.63h340.813v-7.68h-340.813v7.68zM503.859 248.627h248.755v-7.68h-248.755v7.68z" />
<glyph unicode="&#x50;" glyph-name="opportunity" d="M504.525 42.496c-233.882 0-268.8 128.307-268.8 204.8 0 93.363 103.347 229.862 171.725 279.168 2.176 1.587 4.813 2.432 7.475 2.432h179.2c2.688 0 5.325-0.845 7.475-2.432 68.352-49.306 171.725-185.805 171.725-279.168 0-76.493-34.918-204.8-268.8-204.8zM419.123 503.296c-71.885-53.786-157.798-180.557-157.798-256 0-117.248 84.096-179.2 243.2-179.2s243.2 61.952 243.2 179.2c0 75.443-85.914 202.214-157.798 256h-170.803zM594.125 554.496h-179.2c-7.066 0-12.8 5.734-12.8 12.8s5.734 12.8 12.8 12.8h179.2c7.066 0 12.8-5.734 12.8-12.8s-5.734-12.8-12.8-12.8zM581.325 605.696h-153.6c-7.066 0-12.8 5.734-12.8 12.8 0 58.675-60.416 131.866-61.030 132.608-3.712 4.454-3.968 10.88-0.589 15.616 3.354 4.736 9.498 6.63 14.925 4.582l91.597-34.355 33.254 66.509c4.352 8.678 18.56 8.678 22.912 0l33.254-66.509 91.597 34.355c5.427 1.997 11.571 0.154 14.925-4.582s3.123-11.136-0.589-15.59c-0.614-0.742-61.030-74.061-61.030-132.608-0.026-7.117-5.76-12.826-12.826-12.826zM439.808 631.296h129.459c3.994 36.659 24.038 74.675 41.062 101.197l-62.874-23.578c-6.144-2.304-13.005 0.384-15.949 6.272l-26.957 53.888-26.957-53.888c-2.918-5.862-9.754-8.55-15.949-6.272l-62.874 23.578c16.998-26.547 37.018-64.538 41.037-101.197z" />
<glyph unicode="&#x51;" glyph-name="icon-notification" d="M863.36 182.528h-717.67c-6.246 0-11.52 4.813-12.262 11.238-0.768 6.4 3.2 12.416 9.267 13.978 61.133 15.821 89.6 40.346 89.6 77.184v179.2c0 119.808 66.048 223.514 168.883 266.291 10.778 49.203 53.965 85.453 103.322 85.453 50.125 0 92.442-35.507 103.219-85.453 102.912-42.803 169.011-146.509 169.011-266.291v-179.2c0-36.838 28.493-61.363 89.6-77.184 6.067-1.562 10.061-7.552 9.267-13.978-0.742-6.426-5.99-11.238-12.237-11.238zM211.917 208.128h585.19c-24.166 15.36-45.133 39.296-45.133 76.8v179.2c0 111.488-62.566 207.642-159.437 244.915-4.198 1.613-7.245 5.453-7.91 10.061-6.144 41.242-39.834 71.168-80.102 71.168-39.706 0-74.189-30.592-80.23-71.168-0.666-4.582-3.712-8.422-7.91-10.061-96.768-37.274-159.309-133.402-159.309-244.915v-179.2c0-37.504-20.992-61.44-45.158-76.8zM504.525 80.128c-55.501 0-98.995 50.611-98.995 115.2 0 7.066 5.53 12.8 12.365 12.8s12.365-5.734 12.365-12.8c0-44.032 27.75-89.6 74.24-89.6s74.24 45.568 74.24 89.6c0 7.066 5.53 12.8 12.365 12.8s12.365-5.734 12.365-12.8c0.051-64.614-43.443-115.2-98.944-115.2z" />
<glyph unicode="&#x52;" glyph-name="publishing" d="M808.754 130.764h-598.578c-50.126 0-90.88 40.78-90.88 90.906v442.394c0 50.126 40.782 90.88 90.88 90.88h598.578c50.1 0 90.854-40.754 90.854-90.88v-442.418c0.026-50.1-40.754-90.88-90.854-90.88zM210.176 729.344c-35.994 0-65.28-29.286-65.28-65.28v-442.418c0-36.020 29.286-65.306 65.28-65.306h598.578c35.994 0 65.254 29.286 65.254 65.306v442.418c0 35.994-29.286 65.28-65.254 65.28h-598.578zM886.836 573.21h-754.74c-7.066 0-12.8 5.734-12.8 12.8s5.734 12.8 12.8 12.8h754.714c7.066 0 12.8-5.734 12.8-12.8s-5.708-12.8-12.774-12.8zM366.336 130.764c-7.066 0-12.8 5.734-12.8 12.8v442.446c0 7.066 5.734 12.8 12.8 12.8s12.8-5.734 12.8-12.8v-442.446c0-7.066-5.734-12.8-12.8-12.8zM886.836 391.014h-520.5c-7.066 0-12.8 5.734-12.8 12.8s5.734 12.8 12.8 12.8h520.5c7.066 0 12.8-5.734 12.8-12.8s-5.734-12.8-12.8-12.8zM248.986 664.064c0-14.252-11.552-25.806-25.806-25.806s-25.806 11.552-25.806 25.806c0 14.252 11.552 25.804 25.806 25.804s25.806-11.552 25.806-25.804zM327.092 664.064c0-14.252-11.552-25.806-25.806-25.806s-25.806 11.552-25.806 25.806c0 14.252 11.552 25.804 25.806 25.804s25.806-11.552 25.806-25.804zM405.146 664.064c0-14.252-11.552-25.806-25.806-25.806s-25.806 11.552-25.806 25.806c0 14.252 11.552 25.804 25.806 25.804s25.806-11.552 25.806-25.804z" />
<glyph unicode="&#x53;" glyph-name="sponsor" d="M417.46 87.398h-281.6c-7.066 0-12.8 5.734-12.8 12.8v512c0 7.066 5.734 12.8 12.8 12.8h281.6c7.066 0 12.8-5.734 12.8-12.8v-512c0-7.066-5.734-12.8-12.8-12.8zM148.658 112.998h256v486.4h-256v-486.4zM366.26 599.398h-179.2c-7.066 0-12.8 5.734-12.8 12.8v102.4c0 7.066 5.734 12.8 12.8 12.8h179.2c7.066 0 12.8-5.734 12.8-12.8v-102.4c0-7.066-5.734-12.8-12.8-12.8zM199.86 624.998h153.6v76.8h-153.6v-76.8zM263.858 701.798c-7.066 0-12.8 5.734-12.8 12.8v128c0 7.066 5.734 12.8 12.8 12.8s12.8-5.734 12.8-12.8v-128c0-7.066-5.734-12.8-12.8-12.8zM878.26 87.398h-230.4c-7.066 0-12.8 5.734-12.8 12.8v435.2c0 7.066 5.734 12.8 12.8 12.8h230.4c7.066 0 12.8-5.734 12.8-12.8v-435.2c0-7.066-5.734-12.8-12.8-12.8zM660.658 112.998h204.8v409.6h-204.8v-409.6zM827.058 522.598h-128c-7.066 0-12.8 5.734-12.8 12.8v76.8c0 7.066 5.734 12.8 12.8 12.8h128c7.066 0 12.8-5.734 12.8-12.8v-76.8c0-7.066-5.734-12.8-12.8-12.8zM711.86 548.198h102.4v51.2h-102.4v-51.2zM647.86 394.598h-230.4c-7.066 0-12.8 5.734-12.8 12.8s5.734 12.8 12.8 12.8h230.4c7.066 0 12.8-5.734 12.8-12.8s-5.734-12.8-12.8-12.8zM647.86 87.398h-230.4c-7.066 0-12.8 5.734-12.8 12.8s5.734 12.8 12.8 12.8h230.4c7.066 0 12.8-5.734 12.8-12.8s-5.734-12.8-12.8-12.8zM315.060 650.598h-76.8c-7.066 0-12.8 5.734-12.8 12.8s5.734 12.8 12.8 12.8h76.8c7.066 0 12.8-5.734 12.8-12.8s-5.734-12.8-12.8-12.8zM366.26 496.998h-179.2c-7.066 0-12.8 5.734-12.8 12.8s5.734 12.8 12.8 12.8h179.2c7.066 0 12.8-5.734 12.8-12.8s-5.734-12.8-12.8-12.8zM366.26 548.198h-179.2c-7.066 0-12.8 5.734-12.8 12.8s5.734 12.8 12.8 12.8h179.2c7.066 0 12.8-5.734 12.8-12.8s-5.734-12.8-12.8-12.8zM366.26 445.798h-179.2c-7.066 0-12.8 5.734-12.8 12.8s5.734 12.8 12.8 12.8h179.2c7.066 0 12.8-5.734 12.8-12.8s-5.734-12.8-12.8-12.8zM366.26 394.598h-179.2c-7.066 0-12.8 5.734-12.8 12.8s5.734 12.8 12.8 12.8h179.2c7.066 0 12.8-5.734 12.8-12.8s-5.734-12.8-12.8-12.8zM366.26 343.398h-179.2c-7.066 0-12.8 5.734-12.8 12.8s5.734 12.8 12.8 12.8h179.2c7.066 0 12.8-5.734 12.8-12.8s-5.734-12.8-12.8-12.8zM366.26 292.198h-179.2c-7.066 0-12.8 5.734-12.8 12.8s5.734 12.8 12.8 12.8h179.2c7.066 0 12.8-5.734 12.8-12.8s-5.734-12.8-12.8-12.8zM366.26 240.998h-179.2c-7.066 0-12.8 5.734-12.8 12.8s5.734 12.8 12.8 12.8h179.2c7.066 0 12.8-5.734 12.8-12.8s-5.734-12.8-12.8-12.8zM827.058 471.398h-128c-7.066 0-12.8 5.734-12.8 12.8s5.734 12.8 12.8 12.8h128c7.066 0 12.8-5.734 12.8-12.8s-5.734-12.8-12.8-12.8zM827.058 420.198h-128c-7.066 0-12.8 5.734-12.8 12.8s5.734 12.8 12.8 12.8h128c7.066 0 12.8-5.734 12.8-12.8s-5.734-12.8-12.8-12.8zM827.058 368.998h-128c-7.066 0-12.8 5.734-12.8 12.8s5.734 12.8 12.8 12.8h128c7.066 0 12.8-5.734 12.8-12.8s-5.734-12.8-12.8-12.8zM827.058 317.798h-128c-7.066 0-12.8 5.734-12.8 12.8s5.734 12.8 12.8 12.8h128c7.066 0 12.8-5.734 12.8-12.8s-5.734-12.8-12.8-12.8zM827.058 215.398h-128c-7.066 0-12.8 5.734-12.8 12.8s5.734 12.8 12.8 12.8h128c7.066 0 12.8-5.734 12.8-12.8s-5.734-12.8-12.8-12.8zM827.058 266.598h-128c-7.066 0-12.8 5.734-12.8 12.8s5.734 12.8 12.8 12.8h128c7.066 0 12.8-5.734 12.8-12.8s-5.734-12.8-12.8-12.8zM596.658 317.798h-128c-7.066 0-12.8 5.734-12.8 12.8s5.734 12.8 12.8 12.8h128c7.066 0 12.8-5.734 12.8-12.8s-5.734-12.8-12.8-12.8zM596.658 266.598h-128c-7.066 0-12.8 5.734-12.8 12.8s5.734 12.8 12.8 12.8h128c7.066 0 12.8-5.734 12.8-12.8s-5.734-12.8-12.8-12.8zM596.658 215.398h-128c-7.066 0-12.8 5.734-12.8 12.8s5.734 12.8 12.8 12.8h128c7.066 0 12.8-5.734 12.8-12.8s-5.734-12.8-12.8-12.8zM289.46 87.398h-51.2c-7.066 0-12.8 5.734-12.8 12.8v76.8c0 7.066 5.734 12.8 12.8 12.8h51.2c7.066 0 12.8-5.734 12.8-12.8v-76.8c0-7.066-5.734-12.8-12.8-12.8zM251.058 112.998h25.6v51.2h-25.6v-51.2zM801.458 87.398h-51.2c-7.066 0-12.8 5.734-12.8 12.8v76.8c0 7.066 5.734 12.8 12.8 12.8h51.2c7.066 0 12.8-5.734 12.8-12.8v-76.8c0-7.066-5.734-12.8-12.8-12.8zM763.058 112.998h25.6v51.2h-25.6v-51.2z" />
<glyph unicode="&#x54;" glyph-name="tickets" d="M437.12 71.066c-3.276 0-6.554 1.254-9.062 3.738l-79.668 79.668c-4.992 4.992-4.992 13.106 0 18.1 13.056 13.056 20.274 30.438 20.274 48.922 0 18.458-7.194 35.814-20.274 48.87-26.138 26.138-71.68 26.138-97.792 0-4.812-4.812-13.312-4.812-18.098 0l-79.694 79.718c-4.992 4.992-4.992 13.106 0 18.1l420.174 420.096c4.992 4.992 13.106 4.992 18.1 0l79.692-79.668c2.406-2.406 3.738-5.658 3.738-9.062s-1.356-6.656-3.738-9.062c-13.056-13.056-20.274-30.414-20.274-48.87 0-18.484 7.194-35.84 20.274-48.922 26.138-26.138 71.654-26.138 97.792 0 4.812 4.788 13.312 4.812 18.1 0l79.692-79.668c2.406-2.406 3.738-5.658 3.738-9.062s-1.356-6.656-3.738-9.062l-420.198-420.070c-2.484-2.51-5.76-3.764-9.036-3.764zM374.938 164.148l62.182-62.182 402.1 402.048-62.208 62.182c-36.198-27.648-91.622-24.294-124.34 8.448-17.894 17.894-27.75 41.702-27.75 67.020 0 20.992 6.784 40.934 19.302 57.318l-62.208 62.182-402.074-402.022 62.182-62.208c36.224 27.648 91.648 24.27 124.338-8.448 17.894-17.87 27.75-41.65 27.75-66.97 0.026-20.992-6.758-40.96-19.276-57.37zM495.078 244.89c-3.404 0-6.656 1.356-9.062 3.738l-159.334 159.36c-4.992 4.992-4.992 13.106 0 18.1l159.36 159.36c4.992 4.992 13.108 4.992 18.098 0l159.36-159.308c2.406-2.406 3.738-5.658 3.738-9.062 0-3.38-1.356-6.656-3.738-9.062l-159.386-159.412c-2.38-2.356-5.632-3.712-9.036-3.712zM353.844 417.050l141.236-141.26 141.286 141.312-141.26 141.21-141.26-141.26zM524.066 695.962l32.582-32.582-32.582-32.582-32.582 32.582 32.582 32.582zM567.528 652.492l32.582-32.582-32.582-32.582-32.582 32.582 32.582 32.582zM610.998 609.054l32.634-32.57-32.568-32.634-32.634 32.57 32.568 32.634zM654.51 565.586l32.578-32.588-32.588-32.58-32.578 32.588 32.588 32.578zM697.928 522.11l32.582-32.582-32.582-32.582-32.582 32.582 32.582 32.582zM741.352 478.652l32.588-32.58-32.578-32.588-32.588 32.578 32.578 32.588zM437.12 389.812c-3.276 0-6.554 1.254-9.062 3.738-4.992 4.992-4.992 13.106 0 18.1l72.474 72.422c4.992 4.992 13.108 4.992 18.098 0s4.992-13.106 0-18.098l-72.474-72.422c-2.484-2.482-5.76-3.738-9.036-3.738zM480.588 346.342c-3.276 0-6.554 1.254-9.062 3.738-4.992 4.992-4.992 13.106 0 18.1l72.448 72.448c4.992 4.992 13.106 4.992 18.1 0s4.992-13.106 0-18.1l-72.448-72.448c-2.484-2.482-5.76-3.738-9.036-3.738z" />
<glyph unicode="&#x55;" glyph-name="subscription" d="M834.79 50.894h-645.554c-33.766 0-61.236 27.47-61.236 61.236v338.918c0 4.274 2.126 8.242 5.658 10.624l128 86.246c5.836 3.918 13.798 2.406 17.766-3.456 3.942-5.862 2.406-13.824-3.456-17.766l-122.368-82.458v-332.11c0-19.634 16-35.634 35.634-35.634h645.582c19.634 0 35.61 16 35.61 35.634v332.108l-122.342 82.458c-5.862 3.942-7.424 11.904-3.456 17.766s11.904 7.398 17.766 3.456l128-86.246c3.482-2.38 5.606-6.348 5.606-10.624v-338.918c0-33.766-27.442-61.236-61.21-61.236zM793.6 140.494c-2.918 0-5.862 0.998-8.244 3.020l-162.816 137.778h-221.030l-162.816-137.778c-5.402-4.558-13.466-3.89-18.048 1.51-4.556 5.376-3.89 13.466 1.51 18.048l166.4 140.8c2.304 1.946 5.248 3.020 8.27 3.020h230.4c3.020 0 5.966-1.076 8.27-3.020l166.4-140.8c5.402-4.582 6.068-12.646 1.51-18.048-2.56-2.996-6.17-4.53-9.804-4.53zM689.562 309.12c-4.148 0-8.192 1.996-10.674 5.708-3.918 5.862-2.33 13.824 3.558 17.74l193.638 129.126c5.836 3.916 13.824 2.33 17.74-3.558s2.33-13.824-3.558-17.74l-193.638-129.126c-2.15-1.434-4.634-2.15-7.066-2.15zM334.464 309.12c-2.432 0-4.89 0.692-7.092 2.15l-193.664 129.126c-5.888 3.918-7.474 11.854-3.558 17.74 3.89 5.862 11.802 7.476 17.74 3.558l193.664-129.126c5.888-3.918 7.476-11.852 3.558-17.74-2.458-3.712-6.502-5.708-10.65-5.708zM755.2 352.896c-7.066 0-12.8 5.734-12.8 12.8v427.596h-460.8v-427.596c0-7.066-5.734-12.8-12.8-12.8s-12.8 5.734-12.8 12.8v440.396c0 7.066 5.734 12.8 12.8 12.8h486.4c7.066 0 12.8-5.734 12.8-12.8v-440.396c0-7.066-5.734-12.8-12.8-12.8zM435.2 690.894h-64c-7.066 0-12.8 5.734-12.8 12.8s5.734 12.8 12.8 12.8h64c7.066 0 12.8-5.734 12.8-12.8s-5.734-12.8-12.8-12.8zM652.8 614.094h-217.6c-7.066 0-12.8 5.734-12.8 12.8s5.734 12.8 12.8 12.8h217.6c7.066 0 12.8-5.734 12.8-12.8s-5.734-12.8-12.8-12.8zM652.8 511.692h-281.6c-7.066 0-12.8 5.734-12.8 12.8s5.734 12.8 12.8 12.8h281.6c7.066 0 12.8-5.734 12.8-12.8s-5.734-12.8-12.8-12.8zM652.8 409.294h-281.6c-7.066 0-12.8 5.734-12.8 12.8s5.734 12.8 12.8 12.8h281.6c7.066 0 12.8-5.734 12.8-12.8s-5.734-12.8-12.8-12.8z" />
<glyph unicode="&#x56;" glyph-name="templates" d="M883.2 50.894h-742.4c-7.066 0-12.8 5.734-12.8 12.8v742.4c0 7.066 5.734 12.8 12.8 12.8h742.4c7.066 0 12.8-5.734 12.8-12.8v-742.4c0-7.066-5.734-12.8-12.8-12.8zM153.6 76.494h716.8v716.8h-716.8v-716.8zM652.8 50.894c-7.066 0-12.8 5.734-12.8 12.8v742.4c0 7.066 5.734 12.8 12.8 12.8s12.8-5.734 12.8-12.8v-742.4c0-7.066-5.734-12.8-12.8-12.8zM569.6 695.092h-140.8c-7.066 0-12.8 5.734-12.8 12.8s5.734 12.8 12.8 12.8h140.8c7.066 0 12.8-5.734 12.8-12.8s-5.734-12.8-12.8-12.8zM569.6 618.318h-140.8c-7.066 0-12.8 5.734-12.8 12.8s5.734 12.8 12.8 12.8h140.8c7.066 0 12.8-5.734 12.8-12.8s-5.734-12.8-12.8-12.8zM569.6 422.092h-364.8c-7.066 0-12.8 5.734-12.8 12.8s5.734 12.8 12.8 12.8h364.8c7.066 0 12.8-5.734 12.8-12.8s-5.734-12.8-12.8-12.8zM569.6 345.216h-364.8c-7.066 0-12.8 5.734-12.8 12.8s5.734 12.8 12.8 12.8h364.8c7.066 0 12.8-5.734 12.8-12.8s-5.734-12.8-12.8-12.8zM569.6 268.34h-364.8c-7.066 0-12.8 5.734-12.8 12.8s5.734 12.8 12.8 12.8h364.8c7.066 0 12.8-5.734 12.8-12.8s-5.734-12.8-12.8-12.8zM499.2 191.462h-294.4c-7.066 0-12.8 5.734-12.8 12.8s5.734 12.8 12.8 12.8h294.4c7.066 0 12.8-5.734 12.8-12.8s-5.734-12.8-12.8-12.8zM332.8 605.518h-115.2c-7.066 0-12.8 5.734-12.8 12.8v115.2c0 7.066 5.734 12.8 12.8 12.8h115.2c7.066 0 12.8-5.734 12.8-12.8v-115.2c0-7.066-5.734-12.8-12.8-12.8zM230.4 631.116h89.6v89.6h-89.6v-89.6zM652.8 508.466h-505.6c-7.066 0-12.8 5.734-12.8 12.8s5.734 12.8 12.8 12.8h505.6c7.066 0 12.8-5.734 12.8-12.8s-5.734-12.8-12.8-12.8z" />
<glyph unicode="&#x57;" glyph-name="add-search" d="M476.724 178.458h-333.056c-3.43 0-6.706 1.382-9.088 3.814-2.406 2.406-3.738 5.682-3.712 9.114 0 3.61 1.074 89.010 16.818 136.5 11.802 35.686 75.342 56.524 148.89 80.692 21.556 7.066 43.776 14.362 64.87 22.144v48.87c-14.028 11.7-49.28 47.002-52.658 109.21-11.726 6.35-19.226 21.862-19.226 41.958 0 10.47 2.202 20.506 6.17 28.134 2.738 5.198 6.298 9.318 10.444 12.186-0.050 0.18-0.102 0.334-0.154 0.512-6.834 23.602-19.584 67.61 1.254 90.266 8.754 9.524 21.478 13.62 38.144 12.212 17.202 32.846 69.966 44.8 113.202 44.8 0.026 0 0.050 0 0.050 0 47.744 0 107.136-14.618 117.376-55.86 8.96-35.916-5.018-71.194-12.62-90.318 9.754-7.526 15.794-22.272 15.794-40.806 0-10.702-2.15-20.94-6.118-28.75-3.226-6.452-7.756-11.342-13.056-14.26-2.79-59.238-31.308-87.142-44.876-97.126v-61.106c6.016-2.304 11.904-4.582 17.664-6.836 17.024-6.63 33.1-12.928 49.842-18.458l-8.064-24.346c-17.1 5.682-33.638 12.11-51.072 18.894-8.294 3.25-16.794 6.578-25.702 9.908-4.992 1.894-8.294 6.656-8.294 12.006v76.878c0 4.838 2.688 9.216 7.014 11.442 1.434 0.768 38.092 21.094 38.092 88.32 0 7.092 5.734 12.8 12.8 12.8 1.51 0 6.118 7.346 6.118 20.634 0 13.338-4.608 20.658-6.118 20.658-7.092 0-12.8 5.734-12.8 12.8 0 4.352 1.716 8.704 4.864 16.562 6.502 16.384 18.662 46.874 11.648 74.932-5.222 21.12-44.134 36.428-92.492 36.428 0 0-0.026 0-0.050 0-48.384 0-87.296-15.31-92.518-36.428-1.664-6.63-8.090-10.88-14.976-9.446-8.628 1.716-19.892 2.61-24.986-2.894-11.060-12.032 0.282-51.122 4.532-65.792 2.51-8.602 3.482-12.238 3.482-15.642 0-7.066-5.734-12.8-12.8-12.8-1.894 0-6.144-7.374-6.144-19.508s4.274-19.506 6.144-19.506c7.066 0 12.8-5.734 12.8-12.8 0-69.298 46.798-101.632 47.258-101.938 3.534-2.406 5.658-6.4 5.658-10.624v-64.052c0-5.326-3.25-10.086-8.242-12.006-24.064-9.114-49.562-17.486-74.24-25.6-58.522-19.2-124.8-40.986-132.556-64.384-11.058-33.356-14.31-90.318-15.156-115.764h319.898v-25.626zM706.714 114.406c-70.606 0-128.076 57.472-128.076 128.102 0 70.606 57.472 128.102 128.076 128.102 70.63 0 128.102-57.498 128.102-128.102 0-70.63-57.472-128.102-128.102-128.102zM706.714 344.986c-56.524 0-102.452-45.952-102.452-102.476s45.952-102.476 102.452-102.476c56.524 0 102.476 45.952 102.476 102.476s-45.952 102.476-102.476 102.476zM886.042 50.356c-3.278 0-6.554 1.254-9.062 3.764l-97.842 97.818c-4.992 5.018-4.992 13.106 0 18.126 5.018 4.992 13.106 4.992 18.126 0l97.818-97.842c4.992-5.018 4.992-13.106 0-18.126-2.458-2.482-5.76-3.738-9.038-3.738z" />
<glyph unicode="&#x58;" glyph-name="import" d="M727.475 282.982h-49.766c-5.299 0-9.6 4.301-9.6 9.6s4.301 9.6 9.6 9.6h49.766c86.579 0 157.005 70.426 157.005 157.005s-70.426 157.005-157.005 157.005l-11.008-0.435-2.688 5.632c-37.12 77.517-116.454 127.616-202.086 127.616-116.915 0-212.864-87.782-223.206-204.186l-0.794-9.062-9.088 0.333c-0.077 0-0.128 0-0.205 0-65.126 0-117.504-52.454-117.504-116.915 0-64.512 52.48-116.992 117.018-116.992h60.339c5.299 0 9.6-4.301 9.6-9.6s-4.301-9.6-9.6-9.6h-60.339c-75.11 0-136.218 61.107-136.218 136.192 0 72.55 57.037 132.045 128.589 135.987 15.078 122.061 117.376 213.018 241.408 213.018 90.854 0 175.155-51.917 216.576-132.813 96.819-0.435 175.437-79.309 175.437-176.205 0-97.126-79.053-176.179-176.23-176.179zM515.507 107.315c-5.299 0-9.6 4.301-9.6 9.6v311.706c0 5.299 4.301 9.6 9.6 9.6s9.6-4.301 9.6-9.6v-311.706c0-5.299-4.301-9.6-9.6-9.6zM607.821 343.014c-2.458 0-4.915 0.947-6.784 2.816l-85.504 85.504-85.504-85.504c-3.738-3.738-9.83-3.738-13.568 0s-3.738 9.83 0 13.568l99.098 99.098 99.098-99.098c3.738-3.738 3.738-9.83 0-13.568-1.92-1.869-4.378-2.816-6.835-2.816z" />
<glyph unicode="&#x59;" glyph-name="mobile" d="M645.888 55.552h-272.512c-48.026 0-87.092 39.066-87.092 87.092v569.778c0 48.026 39.066 87.116 87.092 87.116h272.512c48.052 0 87.142-39.090 87.142-87.116v-569.778c0-48.026-39.092-87.092-87.142-87.092zM373.376 773.938c-33.894 0-61.49-27.596-61.49-61.516v-569.778c0-33.894 27.596-61.49 61.49-61.49h272.512c33.946 0 61.542 27.596 61.542 61.49v569.778c0 33.92-27.596 61.518-61.542 61.518h-272.512zM299.11 675.686h421.146v-25.6h-421.146v25.6zM299.11 205.030h421.146v-25.6h-421.146v25.6zM422.964 725.222h173.39v-25.6h-173.39v25.6zM509.67 92.698c-20.736 0-37.582 16.87-37.582 37.606 0 20.71 16.87 37.554 37.582 37.554s37.58-16.846 37.58-37.554c0-20.762-16.87-37.606-37.582-37.606zM509.67 142.234c-6.606 0-11.98-5.35-11.98-11.956s5.376-12.006 11.98-12.006 11.982 5.376 11.982 12.006c0 6.606-5.376 11.956-11.98 11.956z" />
<glyph unicode="&#x5a;" glyph-name="location" d="M504.525 53.325c-4.045 0-7.859 1.92-10.266 5.171-10.24 13.824-251.059 339.942-251.059 479.821 0 144.102 117.222 261.325 261.325 261.325s261.325-117.248 261.325-261.325c0-139.878-240.819-466.022-251.059-479.821-2.406-3.251-6.221-5.171-10.266-5.171zM504.525 774.067c-129.971 0-235.725-105.754-235.725-235.725 0-115.84 189.107-385.664 235.725-450.432 46.618 64.768 235.725 334.592 235.725 450.432 0.026 129.971-105.728 235.725-235.725 235.725zM504.525 426.138c-61.875 0-112.205 50.33-112.205 112.205s50.33 112.23 112.205 112.23c61.875 0 112.205-50.355 112.205-112.23s-50.33-112.205-112.205-112.205zM504.525 624.947c-47.744 0-86.605-38.861-86.605-86.63 0-47.744 38.861-86.605 86.605-86.605 47.77 0 86.605 38.861 86.605 86.605 0 47.77-38.835 86.63-86.605 86.63z" />
<glyph unicode="&#x5b;" glyph-name="camera" d="M497.203 520.883c-61.184 0-110.771-49.613-110.771-110.771 0-61.184 49.587-110.771 110.771-110.771 61.158 0 110.771 49.587 110.771 110.771 0 61.158-49.613 110.771-110.771 110.771v0zM792.576 631.629h-88.627c-12.186 0-25.318 9.446-29.133 21.018l-22.938 68.736c-3.84 11.571-16.947 21.018-29.133 21.018h-251.085c-12.186 0-25.318-9.446-29.133-21.018l-22.938-68.736c-3.866-11.571-16.947-21.018-29.133-21.018h-88.627c-40.576 0-73.83-33.229-73.83-73.83v-332.288c0-40.602 33.254-73.83 73.83-73.83h590.746c40.602 0 73.83 33.254 73.83 73.83v332.288c0 40.602-33.254 73.83-73.83 73.83v0zM497.203 225.51c-101.965 0-184.602 82.637-184.602 184.602 0 101.939 82.637 184.602 184.602 184.602 101.939 0 184.602-82.662 184.602-184.602 0-101.965-82.662-184.602-184.602-184.602v0zM766.72 506.163c-14.234 0-25.856 11.571-25.856 25.856 0 14.234 11.622 25.805 25.856 25.805 14.285 0 25.856-11.571 25.856-25.805 0-14.285-11.571-25.856-25.856-25.856v0z" />
<glyph unicode="&#x5d;" glyph-name="edit" d="M363.52 280.806v-73.395l7.859-5.222 19.533-13.030 330.138 330.112-59.52 59.52zM352.282 221.286v56.218h-76.109l-17.485 26.24-23.757-80.845 62.746-62.746 80.845 23.757-26.24 17.485zM208.768 133.99l76.621 22.528-54.093 54.093zM601.987 654.205l37.036 37.036 126.984-126.984-37.036-37.036-126.984 126.984zM816.922 670.797l-71.347 71.347c-14.797 14.797-40.858 14.797-55.654 0l-42.931-42.931 127.002-127.002 42.931 42.931c7.398 7.398 11.494 17.28 11.494 27.827s-4.096 20.429-11.494 27.827zM282.189 288.742h73.395l297.984 298.010-59.52 59.52-330.112-330.138 13.030-19.533z" />
<glyph unicode="&#x5f;" glyph-name="help" d="M512 286.618c-17.843 0-32.282-14.464-32.282-32.282 0-17.843 14.438-32.282 32.282-32.282 17.818 0 32.282 14.438 32.282 32.282 0 17.818-14.464 32.282-32.282 32.282v0zM512 64c-211.738 0-384 172.262-384 384s172.262 384 384 384 384-172.262 384-384-172.262-384-384-384zM512 806.4c-197.632 0-358.4-160.768-358.4-358.4s160.768-358.4 358.4-358.4 358.4 160.768 358.4 358.4-160.768 358.4-358.4 358.4zM512 322.227c-7.066 0-12.8 5.734-12.8 12.8v96.845c0 7.066 5.734 12.8 12.8 12.8 46.336 0 84.045 37.709 84.045 84.045s-37.709 84.019-84.045 84.019-84.045-37.709-84.045-84.045c0-7.066-5.734-12.8-12.8-12.8s-12.8 5.734-12.8 12.8c0 60.442 49.178 109.645 109.645 109.645s109.645-49.178 109.645-109.645c0-56.115-42.394-102.528-96.845-108.902v-84.787c0-7.040-5.734-12.774-12.8-12.774z" />
<glyph unicode="&#x61;" glyph-name="attendee-svg" d="M883.2 88.5h-742.4c-7.066 0-12.8 5.734-12.8 12.8v539.802c0 7.066 5.734 12.8 12.8 12.8h281.6v-25.6h-268.8v-514.202h716.8v514.202h-268.8v25.6h281.6c7.066 0 12.8-5.734 12.8-12.8v-539.802c0-7.066-5.734-12.8-12.8-12.8zM345.6 282.702c-42.342 0-76.8 34.458-76.8 76.8s34.458 76.8 76.8 76.8 76.8-34.458 76.8-76.8-34.458-76.8-76.8-76.8zM345.6 410.702c-28.238 0-51.2-22.962-51.2-51.2s22.964-51.2 51.2-51.2 51.2 22.962 51.2 51.2-22.964 51.2-51.2 51.2zM460.8 193.1h-230.4v12.8c0 24.014 8.32 102.4 115.2 102.4s115.2-78.386 115.2-102.4v-12.8zM256.82 218.702h177.586c-3.662 28.262-21.582 64-88.782 64s-85.146-35.764-88.806-64zM601.6 576.538h-179.2c-7.066 0-12.8 5.734-12.8 12.8v124.672c0 50.662 46.9 93.49 102.4 93.49s102.4-42.802 102.4-93.49v-124.672c0-7.066-5.734-12.8-12.8-12.8zM435.2 602.138h153.6v111.872c0 32.794-30.848 67.892-76.8 67.892-45.926 0-76.8-35.098-76.8-67.892v-111.872zM512 679.5c-21.17 0-38.4 17.23-38.4 38.4s17.228 38.4 38.4 38.4 38.4-17.228 38.4-38.4-17.23-38.4-38.4-38.4zM512 730.702c-7.066 0-12.8-5.734-12.8-12.8s5.734-12.8 12.8-12.8 12.8 5.734 12.8 12.8-5.734 12.8-12.8 12.8zM140.8 525.902h742.4v-25.6h-742.4v25.6zM544.308 218.702h249.294v-25.6h-249.294v25.6zM544.308 295.5h249.294v-25.6h-249.294v25.6zM544.308 372.302h249.294v-25.6h-249.294v25.6zM544.308 449.1h121.294v-25.6h-121.294v25.6z" />
<glyph unicode="&#x62;" glyph-name="booking" d="M537.038 118.758h-244.942c-96.050 0-180.326 84.274-180.326 180.378v103.116c0 171.188 111.052 231.936 206.158 231.936h103.118c37.99 0 77.286-24.064 77.286-64.358v-25.754c0-41.806-39.808-64.384-77.286-64.384h-55.834c-11.238-26.086-49.69-103.142-111.744-103.142-7.066 0-12.8 5.734-12.8 12.8s5.734 12.8 12.8 12.8c46.004 0 81.382 68.404 91.11 94.772 1.87 5.018 6.656 8.37 12.006 8.37h64.462c25.062 0 51.686 13.594 51.686 38.784v25.754c0 24.242-26.266 38.758-51.686 38.758h-103.118c-30.156 0-180.556-9.958-180.556-206.336v-103.116c0-82.458 72.32-154.778 154.726-154.778h244.942c7.066 0 12.8-5.734 12.8-12.8s-5.734-12.8-12.8-12.8zM665.932 221.876h-128.896c-7.066 0-12.8 5.734-12.8 12.8s5.734 12.8 12.8 12.8h128.896c19.918 0 38.758 18.842 38.758 38.784 0 19.918-18.842 38.758-38.758 38.758h-219.136c-7.066 0-12.8 5.734-12.8 12.8s5.734 12.8 12.8 12.8h219.136c33.69 0 64.358-30.668 64.358-64.358 0-34.304-30.080-64.384-64.358-64.384zM532.53 118.758h-47.052c-7.066 0-12.8 5.734-12.8 12.8s5.734 12.8 12.8 12.8h47.052c19.918 0 30.362 19.506 30.362 38.758s-10.418 38.758-30.362 38.758h-85.734c-7.066 0-12.8 5.734-12.8 12.8s5.734 12.8 12.8 12.8h85.734c31.898 0 55.962-27.674 55.962-64.358s-24.064-64.358-55.962-64.358zM872.192 582.836h-394.906c-7.066 0-12.8 5.734-12.8 12.8s5.734 12.8 12.8 12.8h394.906c7.066 0 12.8-5.734 12.8-12.8s-5.708-12.8-12.8-12.8zM820.608 324.992h-464.050c-34.278 0-64.358 30.080-64.358 64.358v22.86c0 7.066 5.734 12.8 12.8 12.8s12.8-5.734 12.8-12.8v-22.86c0-19.918 18.842-38.758 38.758-38.758h464.026c19.942 0 38.81 18.842 38.81 38.758v283.596c0 19.918-18.842 38.784-38.81 38.784h-470.17c-20.122 0-32.588-12.058-32.588-31.462v-58.88c0-7.066-5.734-12.8-12.8-12.8s-12.8 5.734-12.8 12.8v58.88c0 33.586 23.936 57.062 58.19 57.062h470.194c34.304 0 64.41-30.080 64.41-64.384v-283.596c-0.026-34.278-30.106-64.358-64.41-64.358zM794.828 505.472h-103.116c-7.066 0-12.8 5.734-12.8 12.8s5.734 12.8 12.8 12.8h103.116c7.066 0 12.8-5.734 12.8-12.8s-5.734-12.8-12.8-12.8z" />
<glyph unicode="&#x63;" glyph-name="contacts-svg" d="M721.792 101.888h-580.992c-7.066 0-12.8 5.734-12.8 12.8 0 4.48 0.18 110.208 15.924 157.722 12.236 36.942 80.282 60.39 159.052 87.578 18.586 6.4 37.35 12.876 55.424 19.584v60.722c-15.18 10.24-49.28 39.884-52.608 100.454-11.726 6.374-19.2 21.862-19.2 41.932 0 18.56 6.374 33.204 16.588 40.346-0.050 0.154-0.102 0.308-0.128 0.486-6.502 22.426-18.586 64.154-1.1 87.45 5.76 7.68 17.46 16.922 40.448 15.002 17.202 32.818 69.94 44.8 113.126 44.8 47.718 0 107.086-14.618 117.326-55.808 8.96-36.020-5.12-72.704-12.698-92.416 9.804-7.322 15.872-21.682 15.872-39.808 0-10.47-2.202-20.454-6.196-28.11-3.25-6.246-7.73-10.93-12.98-13.798-2.816-59.75-31.692-89.42-44.85-99.89v-61.338c17.434-6.476 34.56-12.544 50.97-18.38 79.948-28.366 143.078-50.764 155.7-88.782 15.77-47.488 15.948-153.242 15.948-157.722-0.026-7.092-5.734-12.826-12.826-12.826zM153.754 127.488h555.11c-0.538 29.49-3.046 102.4-14.49 136.884-8.678 26.138-72.448 48.742-139.956 72.704-19.2 6.81-39.296 13.952-59.726 21.658-4.992 1.87-8.294 6.656-8.294 11.98v76.8c0 4.558 2.432 8.782 6.4 11.084 1.486 0.896 38.682 24.116 38.682 91.854 0 7.066 5.734 12.8 12.8 12.8 1.586 0 6.144 6.708 6.144 19.482 0 12.8-4.582 19.482-6.144 19.482-7.066 0-12.8 5.734-12.8 12.8 0 4.25 1.614 8.396 4.788 16.666 6.554 17.076 18.764 48.87 11.75 77.082-5.248 21.068-44.134 36.378-92.492 36.378-48.334 0-87.246-15.31-92.466-36.378-1.664-6.63-8.242-10.83-14.95-9.472-4.404 0.896-8.32 1.332-11.802 1.332-10.086 0-12.928-3.788-13.876-5.044-9.806-13.056 0.716-49.408 5.222-64.922 2.484-8.602 3.508-12.236 3.508-15.642 0-7.066-5.734-12.8-12.8-12.8-0.948 0-2.252-2.022-2.868-3.2-2.048-3.942-3.276-10.036-3.276-16.282 0-12.11 4.274-19.482 6.144-19.482 7.066 0 12.8-5.734 12.8-12.8 0-68.096 45.286-91.238 45.748-91.468 4.352-2.15 7.118-6.606 7.118-11.47v-76.8c0-5.326-3.276-10.086-8.242-11.98-20.786-7.884-42.726-15.462-64.41-22.938-63.206-21.812-134.836-46.49-143.104-71.424-11.468-34.482-13.978-107.366-14.516-136.884zM883.2 101.888h-64.538c-7.066 0-12.8 5.734-12.8 12.8s5.734 12.8 12.8 12.8h51.61c-0.538 29.49-3.046 102.4-14.49 136.884-11.008 33.1-110.414 70.578-198.092 103.63l-9.37 3.534c-5.018 1.87-8.32 6.63-8.32 11.956v51.2c0 5.12 3.046 9.728 7.73 11.75 1.766 0.794 45.134 21.018 45.134 87.884 0 7.066 5.734 12.8 12.8 12.8 0.794 0 1.996 1.614 2.842 3.2 2.048 3.942 3.278 10.036 3.278 16.256 0 12.774-4.558 19.482-6.118 19.482-3.404 0-6.656 1.358-9.062 3.738s-3.738 5.658-3.738 9.062c0 4.020 1.536 8.37 4.558 16.998 6.682 18.918 19.072 54.144 11.98 82.714-2.662 10.674-18.79 30.284-42.24 39.372-12.85 4.966-32.154 8.218-51.174-4.454-5.888-3.89-13.85-2.38-17.792 3.534-3.918 5.862-2.33 13.824 3.558 17.742 21.99 14.694 48.512 17.126 74.624 7.040 27.546-10.676 52.404-35.2 57.856-57.062 8.96-35.994-5.12-75.93-12.672-97.382-0.076-0.256-0.178-0.538-0.282-0.794 9.932-7.27 16.102-21.734 16.102-39.986 0-10.47-2.202-20.454-6.17-28.11-3.25-6.246-7.756-10.93-13.004-13.798-3.302-60.082-37.018-87.858-52.608-97.562l1.076-35.2c106.522-40.14 198.502-74.828 213.376-119.5 15.77-47.488 15.948-153.242 15.948-157.722 0-7.066-5.734-12.8-12.8-12.8z" />
<glyph unicode="&#x64;" glyph-name="done-svg" d="M265.524 466.638l161.178-161.228 382.976 383.026 100.174-100.174-483.15-483.148-261.324 261.35z" />
<glyph unicode="&#x65;" glyph-name="edm-svg" d="M832 50.894h-640c-34.098 0-64 29.9-64 64v358.4c0 34.098 29.902 64 64 64h640c34.1 0 64-29.902 64-64v-358.4c0-34.1-29.9-64-64-64zM192 511.692c-19.738 0-38.4-18.662-38.4-38.4v-358.4c0-19.738 18.662-38.4 38.4-38.4h640c19.738 0 38.4 18.662 38.4 38.4v358.4c0 19.738-18.662 38.4-38.4 38.4h-640zM780.8 306.894h-128c-7.066 0-12.8 5.734-12.8 12.8v128c0 7.066 5.734 12.8 12.8 12.8h128c7.066 0 12.8-5.734 12.8-12.8v-128c0-7.066-5.734-12.8-12.8-12.8zM665.6 332.494h102.4v102.374h-102.4v-102.374zM334.464 409.294h-64.562c-7.066 0-12.8 5.734-12.8 12.8s5.734 12.8 12.8 12.8h64.562c7.066 0 12.8-5.734 12.8-12.8s-5.734-12.8-12.8-12.8zM560.41 204.494h-290.51c-7.066 0-12.8 5.734-12.8 12.8s5.734 12.8 12.8 12.8h290.51c7.066 0 12.8-5.734 12.8-12.8s-5.734-12.8-12.8-12.8zM657.254 127.692h-387.354c-7.066 0-12.8 5.734-12.8 12.8s5.734 12.8 12.8 12.8h387.354c7.066 0 12.8-5.734 12.8-12.8s-5.734-12.8-12.8-12.8zM818.662 588.492h-613.326c-7.066 0-12.8 5.734-12.8 12.8s5.734 12.8 12.8 12.8h613.326c7.066 0 12.8-5.734 12.8-12.8s-5.734-12.8-12.8-12.8zM754.1 665.294h-484.198c-7.066 0-12.8 5.734-12.8 12.8s5.734 12.8 12.8 12.8h484.198c7.066 0 12.8-5.734 12.8-12.8s-5.734-12.8-12.8-12.8zM689.562 742.092h-355.098c-7.066 0-12.8 5.734-12.8 12.8s5.734 12.8 12.8 12.8h355.098c7.066 0 12.8-5.734 12.8-12.8s-5.734-12.8-12.8-12.8z" />
<glyph unicode="&#x66;" glyph-name="star-filled" d="M508.314 734.694l93.312-189.134 208.794-30.336-151.040-147.226 35.584-207.924-186.65 98.176-186.778-98.176 35.712 207.924-150.99 147.226 208.742 30.336z" />
<glyph unicode="&#x67;" glyph-name="finance" d="M774.374 266.034h-629.708c-7.066 0-12.8 5.734-12.8 12.8v393.548c0 7.066 5.734 12.8 12.8 12.8h629.708c7.066 0 12.8-5.734 12.8-12.8v-393.548c0-7.066-5.734-12.8-12.8-12.8zM157.466 291.634h604.11v367.95h-604.11v-367.95zM826.854 213.582h-629.682v25.6h616.884v380.75h25.6v-393.548c0-7.092-5.708-12.8-12.8-12.8zM879.334 161.076h-629.708v25.6h616.908v380.774h25.6v-393.574c0-7.066-5.734-12.8-12.8-12.8zM223.412 370.356h78.694v-25.6h-78.694v25.6zM616.96 606.464h78.746v-25.6h-78.746v25.6zM459.546 357.862c-64.922 0-117.76 52.812-117.76 117.76 0 64.922 52.812 117.734 117.76 117.734 64.922 0 117.734-52.814 117.734-117.734-0.026-64.922-52.838-117.76-117.734-117.76zM459.546 567.758c-50.816 0-92.16-41.318-92.16-92.134s41.344-92.16 92.16-92.16c50.79 0 92.134 41.344 92.134 92.16-0.026 50.79-41.344 92.134-92.134 92.134z" />
<glyph unicode="&#x68;" glyph-name="asia-svg" d="M660.812 356.942l10.292 26.086-35.2-23.706zM606.644 549.504l-11.086 6.322c-12.646-14.77-25.83-40.986-39.552-78.668l9.498 1.972c19.788 29.516 33.486 52.992 41.14 70.374zM686.542 337.178l-10.702-22.528 15.41 5.914zM636.314 579.584l-8.704 13.030-11.086 1.996-16.206-27.29h16.206zM246.016 275.072l19.378-8.678c16.050 8.678 32.154 20.428 48.23 35.2l-33.612 8.704-33.998-35.226zM586.828 628.198c2.1 3.866 5.888 7.246 9.548 10.548 2.458 2.176 8.166 7.346 8.014 9.114-0.128 1.254-3.15 6.708-15.028 15.078-11.136 7.834-22.502 12.902-29.004 14.592-1.87-14.362-10.292-28.366-24.986-32.666-1.664-3.43-3.84-6.734-5.938-9.958-3.712-5.632-7.526-11.47-6.886-15.822l1.126-7.602-7.706-0.128c-6.784-0.102-14.234-0.614-21.99-1.126-26.624-1.714-56.754-3.686-79.232 7.346-18.738 9.216-17.152 27.238-15.872 41.728 1.178 13.364 1.51 21.81-5.99 26.624-5.044 3.226-15.052 1.69-23.884 0.308-5.428-0.846-10.726-1.714-15.18-1.562-7.372 0.178-14.72 0.23-22.068 0.23-7.68 0.052-15.386 0.076-23.092 0.256-14.668 0.434-15.616-0.562-26.214-12.212-3.38-3.712-6.706-6.298-9.678-8.576-5.146-3.968-8.294-6.4-9.754-12.62-0.794-3.226-1.074-6.938-1.332-10.88-0.666-9.702-1.46-20.684-10.342-29.158-10.522-10.062-24.474-7.986-36.762-6.118-2.56 0.384-5.068 0.768-7.45 1.024 0.026-7.552-2.228-14.362-4.276-20.532-2.61-7.834-4.838-14.618-2.688-22.068 1.536-5.274 3.2-9.65 4.658-13.49 6.298-16.512 8.858-26.726-11.75-44.85-8.242-7.246-12.236-12.032-11.854-14.336 0.128-0.768 1.612-2.586 6.45-4.658 10.42-4.428 18.202-0.538 30.028 6.222 3.482 1.972 7.014 3.994 10.676 5.682 34.202 15.846 86.604-0.23 113.484-14.926 17.894-9.778 32.102-16 46.054-20.122 5.914-1.74 12.006-2.56 18.432-3.404 10.418-1.382 21.17-2.79 31.438-8.396 18.662-10.19 32.41-16.922 51.482-23.348 9.856-3.302 17.844-8.986 25.574-14.464 2.534-1.766 4.966-3.534 7.45-5.146l14.054 26.548-14.644 78.694 16.23 43.494 20.558-9.498 6.732 51.406 17.946 4.71c-0.358 8.55 0.052 17.358 3.66 24.064zM793.294 256.512l-11.47 17.382c-8.704-10.828-16.358-24.654-22.938-41.524l-26.88-11.852c-9.216-8.704-18.304-22.938-27.29-42.702l9.088-13.85 11.47 8.294 12.646 28.85c19.226 13.184 38.092 25.702 56.55 37.554l12.262 27.698-13.44-9.856zM627.2 131.558l26.112-1.586 8.704 11.058-15.028 6.732zM632.73 284.186l-27.674 22.528c-25.83-15.028-57.472-20.428-94.9-16.206-17.408-20.044-28.082-39.296-32.026-57.728 12.134-19.764 18.048-36.914 17.792-51.404l62.464 3.174 66.048-27.29 19.38 1.586c31.36 30.848 49.024 58.674 52.966 83.456-23.194 27.418-39.296 55.346-48.256 83.814l-15.794-41.932zM777.472 705.332c-75.136 73.010-165.298 109.542-270.464 109.542s-195.328-36.532-270.49-109.542c-75.648-73.806-113.484-163.2-113.484-268.11 0-104.934 37.708-194.048 113.1-267.316s165.682-109.926 270.874-109.926 195.532 36.658 271.052 109.926c75.52 73.294 113.306 162.38 113.306 267.316 0 104.908-37.966 194.278-113.894 268.108zM763.238 184.73c-71.45-69.198-156.85-103.808-256.23-103.808s-184.55 34.406-255.462 103.22c-71.706 69.582-107.57 153.958-107.57 253.082v0.768l20.556-1.178-1.586-28.85 49.434-99.25 14.618-1.202 13.056 26.522 1.612 28.85c27.93 27.442 50.61 52.326 67.994 74.752 14.772-6.068 25.446-10.802 32.026-14.234l59.314-5.554c35.046-27.136 65.638-48.102 91.726-62.874l-8.32 45.082 24.832 1.152c-0.768 0.538-1.586 1.076-2.33 1.614-7.246 5.146-14.106 9.984-22.068 12.672-20.020 6.758-34.278 13.746-53.632 24.294-8.038 4.404-17.126 5.606-26.726 6.886-6.682 0.896-13.594 1.792-20.506 3.84-14.72 4.326-30.182 11.084-48.716 21.248-25.266 13.824-73.394 27.468-101.324 14.514-3.302-1.562-6.502-3.38-9.652-5.198-11.674-6.682-24.884-14.26-42.062-6.86-8.602 3.662-13.44 8.678-14.438 14.926-1.716 10.778 9.114 20.3 16.282 26.598 14.618 12.8 13.362 16.102 8.090 29.9-1.586 4.174-3.406 8.884-5.044 14.566-3.302 11.47-0.026 21.35 2.866 30.080 2.56 7.68 4.762 14.286 2.944 21.632l-1.92 7.808 8.014 0.538c5.682 0.384 11.7-0.512 17.51-1.382 10.138-1.51 19.712-2.944 25.42 2.534 5.12 4.89 5.632 12.058 6.194 20.378 0.332 4.3 0.614 8.754 1.664 13.082 2.586 10.854 8.73 15.59 14.644 20.174 2.638 2.048 5.35 4.174 7.936 6.988 12.134 13.312 16.462 17.102 36.506 16.64 7.654-0.18 15.258-0.206 22.886-0.256 7.398-0.050 14.822-0.076 22.272-0.23 3.534-0.178 7.988 0.614 12.8 1.382 11.214 1.74 23.884 3.738 33.228-2.252 14.822-9.472 13.362-25.932 12.212-39.168-1.332-14.898-1.586-23.552 8.37-28.442 19.226-9.472 47.462-7.602 72.396-5.99 5.658 0.358 11.162 0.718 16.334 0.948 1.306 6.426 5.198 12.314 8.704 17.664 2.51 3.788 4.838 7.398 5.914 10.572l1.356 3.788 3.942 0.64c12.11 2.022 18.15 15.154 17.894 27.084l-0.102 5.376 5.198 1.306c11.93 2.996 34.56-9.906 44.876-17.178 13.004-9.14 19.942-17.486 20.634-24.782 0.818-8.55-6.222-14.874-12.39-20.428-2.662-2.406-5.708-5.12-6.706-6.938-1.766-3.276-2.15-8.576-2.126-14.182l18.38 4.812 22.578 60.902 46.644 13.030 60.876-16.206 12.646 21.76c75.136-72.524 112.692-157.414 112.692-254.668 0-99.124-35.712-183.296-107.162-252.492zM460.338 342.706l14.642-8.704 11.854 10.292zM595.584 330.854l-1.586 26.496-29.26-9.088zM547.738 343.884l-32.052 11.47 20.582-27.698z" />
<glyph unicode="&#x69;" glyph-name="translate" d="M368.87 436.608l-27.571-73.395h54.835l-26.675 73.395zM463.616 408.525c-12.544 24.781-18.893 51.123-18.893 78.31 0 22.17 4.224 43.776 12.595 64.435-22.784 6.861-47.36 10.598-72.986 10.598-118.938 0-215.347-80.589-215.347-179.968 0-56.525 31.181-106.957 79.949-139.955 15.283-55.142-46.95-84.864-39.68-86.4 81.741-17.075 125.44 51.174 125.44 51.174 15.949-3.149 32.563-4.813 49.664-4.813 86.861 0 161.715 42.982 195.763 104.883-24.090 9.472-46.31 22.477-65.741 38.707-21.709 18.176-38.784 39.373-50.765 63.027zM424.294 277.581l-16 48.947h-79.155l-16.589-48.947h-46.848l80.026 214.093h47.718l79.155-214.093h-48.307zM813.798 346.906c48.768 32.998 79.949 83.43 79.949 139.955 0 99.405-96.41 179.968-215.347 179.968-94.438 0-174.669-50.816-203.725-121.498-7.526-18.33-11.622-38.016-11.622-58.47 0-72.448 51.226-134.861 125.030-163.405 27.469-10.624 58.061-16.563 90.342-16.563 17.101 0 33.715 1.664 49.664 4.813 0 0 34.509-53.939 99.584-53.939 8.141 0 16.768 0.845 25.856 2.739 7.219 1.536-55.014 31.232-39.731 86.4zM786.253 442.547c-0.205-3.328-0.64-6.758-1.715-9.882-1.638-4.838-3.789-9.523-5.939-14.157-2.867-6.17-7.219-11.264-12.339-15.616-3.994-3.379-8.141-6.733-12.672-9.293-6.579-3.712-13.466-6.912-20.403-9.882-4.25-1.818-8.858-2.867-13.338-4.122-2.381-0.666-3.84 0.23-4.915 2.714-2.765 6.374-5.837 12.646-8.96 18.867-0.768 1.562-0.563 2.509 0.819 3.277 1.766 0.973 3.558 2.022 5.453 2.739 4.531 1.741 9.344 2.842 13.619 5.043 9.318 4.787 17.92 10.368 23.091 20.224 5.35 10.189 5.35 20.659 2.022 30.976-2.534 7.834-8.115 14.003-15.488 18.099-2.79 1.562-5.811 2.765-8.704 4.173-2.227 1.075-3.712 0.205-4.813-1.715-2.176-3.866-4.173-7.834-6.502-11.622-4.429-7.219-8.704-14.566-13.67-21.427-4.787-6.605-10.266-12.723-15.616-18.918-2.714-3.123-5.658-6.118-8.806-8.806-2.458-2.099-2.125-4.070-0.845-6.426 1.69-3.098 3.456-6.144 5.069-9.318 1.459-2.918 0.563-5.146-2.15-6.835-4.89-3.046-9.677-6.272-14.515-9.37-1.869-1.203-3.763-2.381-5.734-3.405-0.435-0.23-1.51 0-1.818 0.384-1.536 1.997-2.97 4.070-4.326 6.195-1.766 2.816-3.379 5.709-4.966 8.397-7.142-2.79-13.619-6.246-20.531-7.782-7.834-1.741-16.051-2.125-24.115-2.432-6.246-0.256-12.442 1.408-17.51 5.12-3.661 2.688-7.322 5.965-9.677 9.779-6.784 10.982-7.322 22.861-4.838 35.482 2.534 12.877 8.448 23.834 16.614 33.613 6.605 7.91 14.362 14.822 23.475 19.942 6.323 3.558 12.672 7.066 19.072 10.496 1.792 0.973 2.842 2.15 2.79 4.25-0.205 8.627-0.282 17.28-0.563 25.907-0.102 3.098-2.56 4.864-5.837 4.762-12.902-0.358-25.805-0.691-38.707-0.973-3.763-0.077-4.992 0.896-5.325 4.659-0.614 6.784-1.050 13.568-1.382 20.378-0.154 3.328 1.971 5.043 5.786 5.043 12.902-0.051 25.83-0.154 38.733-0.179 6.502-0.026 7.782 1.28 7.936 7.834 0.179 7.219 0.333 14.438 0.589 21.632 0.154 4.608 0.742 5.222 5.222 4.838 8.192-0.691 16.384-1.638 24.576-2.432 2.714-0.256 3.251-2.074 3.149-4.326-0.307-6.707-0.589-13.414-1.024-20.096-0.333-5.069 0.666-6.323 5.786-5.888 18.022 1.485 36.045 2.842 54.016 4.685 8.576 0.87 17.024 2.739 25.523 4.224 2.97 0.512 5.504-0.794 5.786-3.814 0.691-7.782 1.050-15.59 1.459-23.424 0.102-2.15-1.306-2.995-3.277-3.2-14.822-1.638-29.645-3.558-44.493-4.89-13.645-1.229-27.366-1.843-41.037-2.637-5.734-0.333-6.17-0.614-6.272-6.426-0.102-5.069-0.128-10.163-0.128-15.258 0-3.379 0.87-4.224 4.25-3.84 7.27 0.819 14.515 1.869 21.786 2.662 2.611 0.282 5.274 0.128 7.91 0.256 3.635 0.154 5.043 1.434 5.786 4.992 0.154 0.794 0.358 1.587 0.563 2.381 0.614 2.56 1.766 3.661 4.557 2.355 1.792-0.845 3.891-1.075 5.862-1.536 5.709-1.382 11.469-2.611 17.101-4.25 1.050-0.307 1.92-2.022 2.381-3.277 0.384-1.075 0.102-2.406 0-3.635-0.128-1.971 0.794-2.893 2.637-3.456 14.029-4.301 26.47-11.341 35.866-22.733 3.661-4.429 5.914-10.010 8.96-14.976 3.61-5.862 3.84-12.595 4.787-19.046 0.742-4.864 0.23-10.035-0.077-15.078zM634.854 474.394c-0.384 2.867-1.766 3.789-3.789 2.381-5.299-3.686-10.726-7.296-15.616-11.494-5.248-4.506-9.293-10.112-12.006-16.614-2.765-6.656-2.79-13.414-1.203-20.275 0.154-0.64 0.819-1.126 1.203-1.715 2.918-4.429 7.45-4.326 13.389-4.173 6.528-0.179 13.184 3.354 19.866 7.091 2.944 1.638 3.661 3.661 3.098 6.758-0.666 3.584-1.126 7.219-1.562 10.854-1.152 9.037-2.202 18.125-3.379 27.187zM672.845 490.906c-9.446-2.688-9.242-0.768-8.883-11.494 0.819-5.811 1.587-11.648 2.483-17.459 0.205-1.382 0.666-2.79 1.28-4.045 0.742-1.485 1.818-1.818 2.995-0.205 1.92 2.611 3.917 5.171 5.862 7.757 5.325 7.014 10.061 14.413 13.491 22.579 1.306 3.072 0.691 4.326-2.765 4.25-4.813-0.128-9.856-0.077-14.464-1.382zM201.498 570.829h28.979v38.323h38.323v29.005h-38.323v38.323h-28.979v-38.323h-38.323v-29.005h38.323z" />
<glyph unicode="&#x6a;" glyph-name="258" d="M501.939 524.928h249.549v-7.68h-249.549v7.68zM849.818 755.712h-676.966c-25.498 0-46.157-20.659-46.157-46.157v-523.11c0-25.498 20.659-46.157 46.157-46.157h676.966c25.498 0 46.157 20.659 46.157 46.157v523.11c0 25.498-20.685 46.157-46.157 46.157zM888.269 186.445c0-21.197-17.254-38.451-38.451-38.451h-676.966c-21.197 0-38.451 17.254-38.451 38.451v253.875h753.894v-253.875zM134.374 709.555c0 21.197 17.254 38.451 38.451 38.451h676.966c21.197 0 38.451-17.254 38.451-38.451v-253.875h-753.869v253.875zM501.939 709.555h341.888v-7.68h-341.888v7.68zM501.939 663.398h341.888v-7.68h-341.888v7.68zM501.939 617.242h341.888v-7.68h-341.888v7.68zM501.939 571.085h341.888v-7.68h-341.888v7.68zM172.851 494.157h276.941v215.398h-276.941v-215.398zM180.531 701.85h261.555v-200.013h-261.555v200.013zM176.41 263.373h667.418v-7.68h-667.418v7.68zM180.557 217.216h570.931v-7.68h-570.931v7.68zM849.818 401.843h-676.966v-107.699h676.966v107.699zM842.112 301.85h-661.581v92.314h661.581v-92.314z" />
<glyph unicode="&#x6b;" glyph-name="checked-svg" d="M728.55 134.426l-60.134 75.162c-4.404 5.53-3.506 13.568 1.996 17.996 5.554 4.404 13.568 3.482 17.996-1.996l42.266-52.838 92.288 92.288c4.992 4.992 13.106 4.992 18.1 0s4.992-13.106 0-18.1l-112.512-112.512zM755.2 38.4c-91.75 0-166.4 74.65-166.4 166.4s74.65 166.4 166.4 166.4 166.4-74.65 166.4-166.4-74.65-166.4-166.4-166.4zM755.2 345.6c-77.644 0-140.8-63.154-140.8-140.8s63.154-140.8 140.8-140.8 140.8 63.154 140.8 140.8-63.154 140.8-140.8 140.8zM499.2 166.4h-332.8c-3.406 0-6.682 1.356-9.088 3.788s-3.738 5.708-3.712 9.114c0.026 3.61 1.050 88.96 16.794 136.422 11.802 35.66 75.314 56.5 148.864 80.64 21.504 7.066 43.674 14.336 64.716 22.068v48.846c-14.028 11.674-49.254 46.976-52.608 109.106-11.726 6.374-19.226 21.862-19.226 41.932 0 10.47 2.202 20.454 6.194 28.108 2.688 5.198 6.272 9.318 10.418 12.186-0.026 0.154-0.076 0.332-0.128 0.486-6.834 23.63-19.584 67.584 1.228 90.214 8.704 9.498 21.478 13.62 38.094 12.212 17.254 32.896 69.964 44.878 113.178 44.878 0 0 0.026 0 0.026 0 47.692 0 107.034-14.644 117.274-55.834 8.934-35.918-4.992-71.22-12.596-90.292 9.754-7.5 15.794-22.246 15.794-40.754 0-10.702-2.15-20.914-6.092-28.75-3.25-6.452-7.756-11.29-13.056-14.234-2.816-59.188-31.308-87.066-44.876-97.076v-61.056c5.966-2.278 11.75-4.558 17.458-6.758 17.076-6.656 33.23-12.954 49.996-18.482l-8.014-24.32c-17.202 5.682-33.74 12.11-51.25 18.944-8.218 3.2-16.666 6.502-25.498 9.83-4.992 1.87-8.294 6.656-8.294 11.98v76.8c0 4.812 2.714 9.242 7.014 11.418 1.434 0.768 38.068 21.094 38.068 88.294 0 7.066 5.734 12.8 12.8 12.8 1.536 0 6.144 7.322 6.144 20.634s-4.608 20.634-6.144 20.634c-7.066 0-12.8 5.734-12.8 12.8 0 4.326 1.716 8.678 4.864 16.538 6.502 16.358 18.636 46.822 11.648 74.906-5.248 21.044-44.11 36.378-92.442 36.378 0 0-0.026 0-0.026 0-48.358 0-87.246-15.308-92.492-36.402-1.638-6.63-8.218-10.88-14.95-9.472-8.55 1.716-19.892 2.612-24.96-2.892-11.060-12.006 0.256-51.072 4.506-65.766 2.484-8.576 3.508-12.212 3.508-15.642 0-7.066-5.734-12.8-12.8-12.8-1.87 0-6.17-7.374-6.17-19.482s4.274-19.482 6.17-19.482c7.066 0 12.8-5.734 12.8-12.8 0-69.248 46.772-101.554 47.232-101.888 3.534-2.356 5.632-6.322 5.632-10.572v-64c0-5.326-3.276-10.086-8.242-11.956-24.012-9.114-49.486-17.486-74.112-25.574-58.496-19.2-124.8-40.96-132.556-64.384-11.034-33.332-14.234-90.266-15.13-115.686h319.642v-25.6z" />
<glyph unicode="&#x6c;" glyph-name="icons-template" d="M812.16 229.35h-589.133c-26.906 0-48.358 15.616-49.254 16.282l-1.459 1.075v10.496h289.971v-13.056h110.618v13.056h289.971v-10.496l-1.459-1.075c-0.896-0.64-22.374-16.282-49.254-16.282zM180.122 250.035c5.786-3.712 22.963-13.491 42.906-13.491h589.107c19.942 0 37.12 9.779 42.931 13.491h-274.97v-13.056h-125.005v13.056h-274.97zM839.322 253.619h-7.194v353.485c0 24.013-19.533 43.546-43.546 43.546h-541.978c-24.013 0-43.52-19.533-43.52-43.546v-353.485h-7.219v353.485c0 27.981 22.758 50.714 50.714 50.714h541.978c27.955 0 50.714-22.758 50.714-50.714v-353.485zM813.184 276.147h-591.206v355.584h591.206v-355.584zM229.171 283.315h576.819v341.222h-576.819v-341.222zM558.976 330.368h-82.79c-14.413 0-26.163 11.725-26.163 26.163v173.133c0 14.413 11.725 26.163 26.163 26.163h82.79c14.413 0 26.163-11.725 26.163-26.163v-173.133c0-14.413-11.725-26.163-26.163-26.163zM476.211 548.634c-10.47 0-18.995-8.499-18.995-18.97v-173.133c0-10.47 8.525-18.97 18.995-18.97h82.79c10.47 0 18.97 8.525 18.97 18.97v173.133c0 10.47-8.525 18.97-18.97 18.97h-82.79zM453.606 518.195h127.949v-7.194h-127.949v7.194zM453.606 375.168h127.949v-7.168h-127.949v7.168zM491.238 533.274h52.685v-7.194h-52.685v7.194zM517.581 341.658c-6.118 0-11.11 4.966-11.11 11.136 0 6.144 4.966 11.11 11.11 11.11s11.136-4.966 11.136-11.11c0-6.144-4.992-11.136-11.136-11.136zM517.581 356.71c-2.15 0-3.942-1.766-3.942-3.917 0-2.176 1.792-3.942 3.942-3.942 2.176 0 3.942 1.766 3.942 3.942 0.026 2.15-1.741 3.917-3.942 3.917z" />
<glyph unicode="&#x6d;" glyph-name="speaker" d="M499.814 319.13h16.998c74.726 0 135.86 61.134 135.86 135.86v173.978h-288.69v-173.978c0-74.726 61.132-135.86 135.834-135.86zM652.672 701.21c0 74.7-61.134 135.858-135.86 135.858h-16.998c-74.7 0-135.834-61.134-135.834-135.858v-48.896h288.666v48.896zM739.712 681.472c-14.054 0-25.472-11.392-25.472-25.472v-201.498c0-107.674-87.602-195.276-195.278-195.276h-21.222c-107.674 0-195.276 87.602-195.276 195.276v201.498c0 14.054-11.392 25.472-25.472 25.472s-25.472-11.392-25.472-25.472v-201.498c0-130.738 102.528-237.722 231.374-245.454v-64.128h-132.686l-16.998-87.168h350.234l-16.972 87.168h-132.658v64.128c128.818 7.73 231.372 114.714 231.372 245.452v201.498c0 14.054-11.418 25.472-25.472 25.472z" />
<glyph unicode="&#x6e;" glyph-name="marketing" d="M515.686 214.835c-55.808 27.904-91.853 90.547-91.853 159.565v186.547h22.656v-186.547c0-59.597 31.872-115.584 79.334-139.315l-10.138-20.25zM751.59 415.795h-28.902v110.541h28.902c24.755 0 46.49-21.709 46.49-46.464v-22.144c0-23.526-20.403-41.933-46.49-41.933zM745.344 438.451h6.246c11.725 0 23.834 7.194 23.834 19.251v22.144c0 12.032-11.802 23.834-23.834 23.834h-6.246v-65.229zM745.344 273.152l-32.128 16c-84.762 42.522-164.813 82.662-348.39 82.662h-26.368c-42.88 0-72.832 29.978-72.832 72.883v43.93c0 45.773 32 81.613 72.832 81.613h26.368c191.488 0 272.845 40.525 358.963 83.405l21.555 10.726v-391.219zM338.458 547.635c-31.411 0-50.176-29.978-50.176-58.982v-43.93c0-30.515 19.686-50.227 50.176-50.227h26.368c188.39 0 274.662-43.008 357.862-84.736v318.080c-84.659-41.984-169.344-80.205-357.862-80.205h-26.368z" />
<glyph unicode="&#x6f;" glyph-name="257" d="M851.021 755.712h-676.966c-25.498 0-46.157-20.659-46.157-46.157v-523.11c0-25.498 20.659-46.157 46.157-46.157h676.966c25.498 0 46.157 20.659 46.157 46.157v523.11c0 25.498-20.659 46.157-46.157 46.157zM889.472 186.445c0-21.197-17.254-38.451-38.451-38.451h-676.966c-21.197 0-38.451 17.254-38.451 38.451v100.019h753.894v-100.019zM889.472 440.32v-138.47h-753.869v138.47h753.869zM889.472 594.15v-138.47h-753.869v138.47h753.869zM135.603 709.555c0 21.197 17.254 38.451 38.451 38.451h676.966c21.197 0 38.451-17.254 38.451-38.451v-99.994h-753.869v99.994zM177.894 678.784h653.875v-7.68h-653.875v7.68zM177.894 524.928h653.875v-7.68h-653.875v7.68zM177.894 371.072h653.875v-7.68h-653.875v7.68zM177.894 217.216h653.875v-7.68h-653.875v7.68z" />
<glyph unicode="&#x70;" glyph-name="pending-svg" d="M448.64 175.182h-290.432c-7.066 0-12.8 5.734-12.8 12.8 0 3.43 0.18 84.608 15.924 132.122 12.236 36.966 80.332 60.416 159.206 87.602 18.534 6.4 37.274 12.826 55.27 19.506v60.75c-15.18 10.266-49.28 39.91-52.608 100.48-11.726 6.374-19.2 21.862-19.2 41.932 0 10.496 2.176 20.48 6.194 28.134 2.688 5.198 6.272 9.318 10.418 12.186-0.026 0.154-0.076 0.334-0.128 0.512-6.834 23.63-19.584 67.584 1.228 90.214 8.73 9.498 21.504 13.542 38.118 12.212 17.178 32.794 69.862 44.774 113.024 44.8 0.026 0 0.050 0 0.076 0 47.744 0 107.086-14.618 117.35-55.834 8.96-36.020-5.12-72.704-12.698-92.39 0 0 0 0 0 0 9.778-7.322 15.872-21.682 15.872-39.808 0-10.47-2.202-20.454-6.196-28.11-3.25-6.246-7.73-10.93-12.98-13.798-2.842-59.776-31.692-89.42-44.85-99.892v-70.246h-25.6v76.8c0 4.558 2.432 8.782 6.4 11.084 1.486 0.896 38.682 24.116 38.682 91.878 0 7.066 5.734 12.8 12.8 12.8 1.586 0 6.144 6.706 6.144 19.482 0 12.8-4.558 19.482-6.144 19.482-7.066 0-12.8 5.734-12.8 12.8 0 4.25 1.614 8.396 4.788 16.69 6.554 17.074 18.74 48.846 11.726 77.056-5.248 21.094-44.134 36.404-92.492 36.404-0.026 0-0.050 0-0.076 0-48.308-0.026-87.142-15.334-92.366-36.404-1.638-6.656-8.218-10.802-14.95-9.472-8.576 1.716-19.892 2.61-24.986-2.894-11.060-12.006 0.256-51.046 4.506-65.74 2.484-8.602 3.508-12.236 3.508-15.642 0-7.066-5.734-12.8-12.8-12.8-1.87 0-6.144-7.372-6.144-19.482s4.274-19.482 6.144-19.482c7.066 0 12.8-5.734 12.8-12.8 0-67.354 43.93-90.548 45.824-91.52 4.274-2.176 7.066-6.63 7.066-11.442v-76.8c0-5.326-3.276-10.086-8.242-11.956-20.736-7.884-42.65-15.438-64.282-22.886-63.284-21.812-134.99-46.514-143.258-71.476-10.956-33.076-13.722-86.86-14.414-111.284h277.402v-25.574zM763.442 77.568c-0.178 0-0.358 0-0.512 0h-300.8c-4.428 0-8.55 2.304-10.88 6.068s-2.56 8.5-0.562 12.442l150.4 300.8c4.352 8.678 18.56 8.678 22.912 0l148.992-297.984c2.048-2.254 3.278-5.274 3.278-8.55-0.026-7.040-5.76-12.774-12.826-12.774zM482.842 103.168h259.38l-129.69 259.38-129.69-259.38zM612.53 177.842c-7.066 0-12.8 5.734-12.8 12.8v82.764c0 7.066 5.734 12.8 12.8 12.8s12.8-5.734 12.8-12.8v-82.764c0-7.092-5.708-12.8-12.8-12.8zM635.366 140.494c0-12.612-10.224-22.836-22.836-22.836s-22.836 10.224-22.836 22.836c0 12.612 10.224 22.836 22.836 22.836s22.836-10.224 22.836-22.836z" />
<glyph unicode="&#x71;" glyph-name="applications" d="M894.72 135.092h-132.198c-7.066 0-12.8 5.734-12.8 12.8v26.446c0 18.278-6.938 40.064-40.064 40.064s-40.090-21.786-40.090-40.064v-26.446c0-7.066-5.734-12.8-12.8-12.8h-158.618c-7.066 0-12.8 5.734-12.8 12.8v26.446c0 18.278-6.938 40.064-40.090 40.064-33.126 0-40.064-21.786-40.064-40.064v-26.446c0-7.066-5.734-12.8-12.8-12.8h-132.198c-7.066 0-12.8 5.734-12.8 12.8v449.458c0 7.066 5.734 12.8 12.8 12.8h634.522c7.066 0 12.8-5.734 12.8-12.8v-449.458c0-7.092-5.708-12.8-12.8-12.8zM775.346 160.692h106.598v423.858h-608.948v-423.858h106.598v13.644c0 31.744 17.254 65.664 65.664 65.664 48.436 0 65.69-33.92 65.69-65.664v-13.644h133.018v13.644c0 31.744 17.254 65.664 65.69 65.664s65.664-33.92 65.664-65.664v-13.644zM207.308 267.29h-79.308c-7.066 0-12.8 5.734-12.8 12.8v449.46c0 7.066 5.734 12.8 12.8 12.8h634.548c7.066 0 12.8-5.734 12.8-12.8v-79.31h-25.6v66.51h-608.948v-423.86h66.51v-25.6zM461.362 386.254c-34.638 0-62.822 28.186-62.822 62.798s28.186 62.798 62.822 62.798c34.638 0 62.796-28.186 62.796-62.798s-28.16-62.798-62.798-62.798zM461.362 486.272c-20.532 0-37.222-16.69-37.222-37.198s16.69-37.198 37.222-37.198c20.506 0 37.198 16.692 37.198 37.198s-16.69 37.198-37.198 37.198zM563.814 293.734h-210.662v12.8c0 50.918 27.674 105.344 105.344 105.344s105.344-54.4 105.344-105.344v-12.8zM379.494 319.334h158.004c-3.098 26.802-17.946 66.944-79.002 66.944s-75.904-40.14-79.002-66.944zM644.71 345.754h157.49v-25.6h-157.49v25.6zM643.558 425.088h158.644v-25.6h-158.644v25.6zM644.71 504.396h78.158v-25.6h-78.158v25.6z" />
<glyph unicode="&#x72;" glyph-name="membership" d="M883.226 166.4h-128c-7.066 0-12.8 5.734-12.8 12.8v38.4c0 31.104-20.096 51.2-51.2 51.2s-51.2-20.096-51.2-51.2v-38.4c0-7.066-5.734-12.8-12.8-12.8h-230.4c-7.066 0-12.8 5.734-12.8 12.8v38.4c0 31.104-20.096 51.2-51.2 51.2s-51.2-20.096-51.2-51.2v-38.4c0-7.066-5.734-12.8-12.8-12.8h-128c-7.066 0-12.8 5.734-12.8 12.8v563.2c0 7.066 5.734 12.8 12.8 12.8h742.4c7.066 0 12.8-5.734 12.8-12.8v-563.2c0-7.066-5.708-12.8-12.8-12.8zM768.026 192h102.4v537.6h-716.8v-537.6h102.4v25.6c0 45.236 31.564 76.8 76.8 76.8s76.8-31.566 76.8-76.8v-25.6h204.8v25.6c0 45.236 31.566 76.8 76.8 76.8s76.8-31.566 76.8-76.8v-25.6zM544.308 396.8h249.318v-25.6h-249.318v25.6zM544.308 473.6h249.318v-25.6h-249.318v25.6zM544.308 550.4h249.318v-25.6h-249.318v25.6zM544.308 627.2h121.318v-25.6h-121.318v25.6zM473.626 371.2h-256c-7.066 0-12.8 5.734-12.8 12.8v55.092c0 2.918 0.998 5.734 2.79 8.014 1.612 1.998 37.53 46.028 99.61 51.534v18.226c-12.544 7.476-33.946 26.266-33.946 67.482 0 32.64 0 77.338 77.362 77.338 77.338 0 77.338-44.722 77.338-77.338 0-40.654-19.482-59.494-31.154-67.15v-18.586c62.054-5.682 87.014-51.456 88.116-53.53 0.974-1.842 1.486-3.89 1.486-5.99v-55.092c0-7.066-5.71-12.8-12.8-12.8zM230.426 396.8h230.4v38.732c-5.786 8.806-28.62 38.068-76.8 38.068-7.066 0-12.8 5.734-12.8 12.8v38.4c0 5.402 3.404 10.24 8.5 12.058 0.716 0.308 22.656 9.472 22.656 47.488 0 32.282 0 51.738-51.738 51.738-51.762 0-51.762-19.482-51.762-51.738 0-38.706 24.882-47.308 25.14-47.386 5.274-1.714 8.806-6.63 8.806-12.16v-38.4c0-7.066-5.734-12.8-12.8-12.8-48 0-80.23-29.568-89.6-39.398v-37.402z" />
<glyph unicode="&#x73;" glyph-name="star-line" d="M508.314 647.91l58.854-119.346c5.582-11.342 16.41-19.2 28.902-21.018l131.788-19.15-95.334-92.928c-9.062-8.832-13.184-21.53-11.058-33.972l22.476-131.226-117.812 61.952c-5.606 2.944-11.726 4.404-17.87 4.404s-12.262-1.486-17.87-4.404l-117.914-61.952 22.554 131.2c2.126 12.442-1.998 25.164-11.034 33.996l-95.308 92.928 131.764 19.15c12.492 1.818 23.322 9.678 28.902 21.018l58.956 119.346zM508.314 734.694l-93.338-189.134-208.742-30.336 150.99-147.226-35.738-207.924 186.802 98.176 186.65-98.176-35.61 207.924 151.040 147.226-208.794 30.336-93.26 189.134z" />
<glyph unicode="&#x74;" glyph-name="tasks-svg" d="M883.2 38.4h-742.4c-7.066 0-12.8 5.734-12.8 12.8v742.4c0 7.066 5.734 12.8 12.8 12.8h742.4c7.066 0 12.8-5.734 12.8-12.8v-742.4c0-7.066-5.734-12.8-12.8-12.8zM153.6 64h716.8v716.8h-716.8v-716.8zM302.182 506.444c-3.276 0-6.554 1.254-9.062 3.738l-64.512 64.562c-4.992 4.992-4.992 13.106 0 18.1s13.106 4.992 18.098 0l55.476-55.476 152.346 152.32c4.992 4.992 13.106 4.992 18.098 0s4.992-13.106 0-18.1l-161.408-161.382c-2.484-2.51-5.76-3.762-9.036-3.762zM302.182 199.808v0c-3.404 0-6.656 1.356-9.062 3.738l-64.512 64.588c-4.992 4.992-4.992 13.106 0 18.1s13.106 4.992 18.098 0l55.476-55.526 152.346 152.346c4.992 4.992 13.106 4.992 18.098 0s4.992-13.106 0-18.1l-161.408-161.408c-2.38-2.406-5.632-3.738-9.036-3.738zM786.356 522.598h-258.202c-7.066 0-12.8 5.734-12.8 12.8s5.734 12.8 12.8 12.8h258.202c7.066 0 12.8-5.734 12.8-12.8s-5.734-12.8-12.8-12.8zM786.356 243.2h-258.202c-7.066 0-12.8 5.734-12.8 12.8s5.734 12.8 12.8 12.8h258.202c7.066 0 12.8-5.734 12.8-12.8s-5.734-12.8-12.8-12.8z" />
<glyph unicode="&#x75;" glyph-name="americas-svg" d="M889.548 432.948c0-102.4-36.812-189.798-110.362-262.222-73.6-72.422-161.664-108.62-264.32-108.62s-190.644 35.634-263.988 106.906c-74.086 71.782-111.104 158.848-111.104 261.248 0 102.374 37.018 189.594 111.104 261.632 73.344 71.244 161.33 106.906 263.988 106.906s190.464-35.124 263.526-105.344c74.086-71.296 111.154-158.106 111.154-260.506zM869.862 435.25c0 95.462-35.226 177.254-105.728 245.428-69.99 67.404-152.832 101.12-248.524 101.12l-38.606-79.13 42.062-8.5 32.818 32.82 57.882-3.892 11.596-30.874-34.74-34.714v-20.812l21.606-4.25 10.062 16.206 38.222 23.91-1.152-16.206 14.26-24.704-16.972-17.74 10.802-10.444-25.472-1.536 10.418-20.812-55.194-26.24 8.5-31.232h-17.356l-7.73 30.874-40.5 0.768-7.346-11.98-16.614 7.73-26.982-27.034 21.606-25.83-0.794-28.544 22.784-16.974 132.736-15.078 42.062-29.696-4.992-73.678-91.442-91.468c-5.938-5.888-11.75-22.374-17.408-49.408-5.376-25.446-7.346-43.596-5.786-54.4l-13.876-15.822c-10.802 21.35-24.858 54.144-42.062 98.38-4.148 15.206-7.73 34.51-10.802 57.908-2.304 19.278-4.634 38.706-6.938 58.266l-57.906 50.918 51.354 60.596-21.222 30.464c-32.692 6.706-53.914 12.698-63.668 17.972-9.778 5.274-26.65 19.994-50.56 44.186l20.046-38.964-13.49-5.76-31.258 58.624 6.17 54.81-9.626 38.606-30.080 29.338-22.016 5.402-19.302-13.49-21.222-5.402c-58.394-67.404-87.578-144.844-87.578-232.294 0-97.792 34.97-180.762 104.96-248.908 69.222-67.38 152.806-101.094 250.828-101.094 98.048 0 181.556 34.33 250.624 103.014 69.018 68.608 103.552 151.834 103.552 249.574z" />
<glyph unicode="&#x76;" glyph-name="event-svg" d="M883.2 38.092h-742.4c-7.066 0-12.8 5.734-12.8 12.8v691.2c0 7.066 5.734 12.8 12.8 12.8h128c7.066 0 12.8-5.734 12.8-12.8s-5.734-12.8-12.8-12.8h-115.2v-665.6h716.8v665.6h-115.2c-7.066 0-12.8 5.734-12.8 12.8s5.734 12.8 12.8 12.8h128c7.066 0 12.8-5.734 12.8-12.8v-691.2c0-7.066-5.734-12.8-12.8-12.8zM371.2 652.492h-102.4c-7.066 0-12.8 5.734-12.8 12.8v128c0 7.066 5.734 12.8 12.8 12.8h102.4c7.066 0 12.8-5.734 12.8-12.8v-128c0-7.092-5.734-12.8-12.8-12.8zM281.6 678.094h76.8v102.4h-76.8v-102.4zM755.2 652.492h-102.4c-7.066 0-12.8 5.734-12.8 12.8v128c0 7.066 5.734 12.8 12.8 12.8h102.4c7.066 0 12.8-5.734 12.8-12.8v-128c0-7.092-5.734-12.8-12.8-12.8zM665.6 678.094h76.8v102.4h-76.8v-102.4zM652.8 729.294h-281.6c-7.066 0-12.8 5.734-12.8 12.8s5.734 12.8 12.8 12.8h281.6c7.066 0 12.8-5.734 12.8-12.8s-5.734-12.8-12.8-12.8zM883.2 550.094h-742.4c-7.066 0-12.8 5.734-12.8 12.8s5.734 12.8 12.8 12.8h742.4c7.066 0 12.8-5.734 12.8-12.8s-5.734-12.8-12.8-12.8zM320 102.682c-7.066 0-12.8 5.734-12.8 12.8v387.328c0 7.066 5.734 12.8 12.8 12.8s12.8-5.734 12.8-12.8v-387.328c0-7.092-5.734-12.8-12.8-12.8zM499.2 102.682c-7.066 0-12.8 5.734-12.8 12.8v387.328c0 7.066 5.734 12.8 12.8 12.8s12.8-5.734 12.8-12.8v-387.328c0-7.092-5.734-12.8-12.8-12.8zM678.4 102.682c-7.066 0-12.8 5.734-12.8 12.8v387.328c0 7.066 5.734 12.8 12.8 12.8s12.8-5.734 12.8-12.8v-387.328c0-7.092-5.734-12.8-12.8-12.8zM818.662 422.092h-613.326c-7.066 0-12.8 5.734-12.8 12.8s5.734 12.8 12.8 12.8h613.326c7.066 0 12.8-5.734 12.8-12.8s-5.734-12.8-12.8-12.8zM818.662 294.092h-613.326c-7.066 0-12.8 5.734-12.8 12.8s5.734 12.8 12.8 12.8h613.326c7.066 0 12.8-5.734 12.8-12.8s-5.734-12.8-12.8-12.8zM818.662 166.092h-613.326c-7.066 0-12.8 5.734-12.8 12.8s5.734 12.8 12.8 12.8h613.326c7.066 0 12.8-5.734 12.8-12.8s-5.734-12.8-12.8-12.8z" />
<glyph unicode="&#x77;" glyph-name="waiting-svg" d="M745.754 174.72c-2.97 0-5.862 1.050-8.192 2.97-2.918 2.432-4.608 6.042-4.608 9.83v129.434c0 7.066 5.734 12.8 12.8 12.8s12.8-5.734 12.8-12.8v-114.074l78.566 14.49c7.116 1.28 13.644-3.328 14.924-10.266 1.28-6.962-3.302-13.62-10.266-14.924l-93.696-17.28c-0.794-0.102-1.562-0.178-2.33-0.178zM745.754 38.4c-91.75 0-166.4 74.65-166.4 166.4s74.65 166.4 166.4 166.4 166.4-74.65 166.4-166.4-74.65-166.4-166.4-166.4zM745.754 345.6c-77.644 0-140.8-63.154-140.8-140.8s63.154-140.8 140.8-140.8 140.8 63.154 140.8 140.8-63.154 140.8-140.8 140.8zM489.754 166.4h-332.8c-3.406 0-6.682 1.356-9.088 3.788s-3.738 5.734-3.712 9.14c0.026 3.61 1.050 88.96 16.794 136.422 11.802 35.662 75.314 56.5 148.864 80.64 21.504 7.066 43.674 14.336 64.716 22.068v48.846c-14.028 11.674-49.254 46.976-52.608 109.106-11.726 6.374-19.226 21.862-19.226 41.932 0 10.47 2.202 20.454 6.194 28.11 2.688 5.196 6.272 9.318 10.418 12.186-0.026 0.154-0.076 0.334-0.128 0.486-6.834 23.63-19.584 67.584 1.228 90.214 8.704 9.498 21.402 13.618 38.094 12.212 17.228 32.87 69.964 44.85 113.152 44.85 0 0 0.026 0 0.026 0 47.694 0 107.034-14.642 117.274-55.834 8.934-35.918-4.992-71.218-12.596-90.292 9.754-7.5 15.794-22.246 15.794-40.754 0-10.702-2.15-20.916-6.092-28.75-3.25-6.452-7.756-11.29-13.056-14.234-2.79-59.188-31.308-87.066-44.85-97.074v-61.056c5.966-2.278 11.75-4.558 17.458-6.758 17.076-6.656 33.23-12.954 49.996-18.482l-8.014-24.32c-17.202 5.682-33.74 12.11-51.25 18.944-8.218 3.2-16.666 6.502-25.498 9.83-4.992 1.87-8.294 6.656-8.294 11.98v76.8c0 4.812 2.714 9.242 7.014 11.418 1.434 0.768 38.066 21.094 38.066 88.294 0 7.066 5.734 12.8 12.8 12.8 1.536 0 6.144 7.322 6.144 20.634s-4.608 20.634-6.144 20.634c-7.066 0-12.8 5.734-12.8 12.8 0 4.326 1.716 8.678 4.864 16.538 6.502 16.358 18.636 46.822 11.648 74.906-5.248 21.044-44.134 36.378-92.442 36.378 0 0-0.026 0-0.026 0-48.358 0-87.246-15.308-92.492-36.402-1.664-6.63-8.294-10.88-14.95-9.472-8.55 1.716-19.892 2.612-24.96-2.892-11.060-12.006 0.256-51.072 4.506-65.766 2.484-8.576 3.508-12.212 3.508-15.642 0-7.066-5.734-12.8-12.8-12.8-1.87 0-6.17-7.374-6.17-19.482s4.274-19.482 6.17-19.482c7.066 0 12.8-5.734 12.8-12.8 0-69.248 46.772-101.554 47.232-101.888 3.534-2.38 5.658-6.374 5.658-10.624v-64c0-5.326-3.276-10.086-8.242-11.956-24.012-9.114-49.486-17.486-74.112-25.574-58.496-19.2-124.8-40.96-132.556-64.384-11.086-33.28-14.284-90.214-15.182-115.634h319.666v-25.6z" />
</font>
</defs>
</svg>
