<?xml version="1.0" standalone="no"?>
<!DOCTYPE svg PUBLIC "-//W3C//DTD SVG 1.1//EN" "http://www.w3.org/Graphics/SVG/1.1/DTD/svg11.dtd" >
<svg xmlns="http://www.w3.org/2000/svg">
<metadata></metadata>
<defs>
<font id="merriweather_sansbook" horiz-adv-x="0" >
<font-face units-per-em="2048" ascent="1638" descent="-410" />
<missing-glyph horiz-adv-x="655" />
<glyph unicode="&#xfb01;" horiz-adv-x="1389" d="M76 1014v92l196 34v92q0 98 23.5 176.5t62 128.5t90.5 83.5t105.5 47.5t110.5 14q81 0 136 -21v-133q-55 20 -159 20q-93 0 -147.5 -72.5t-54.5 -207.5v-128h303v-126h-303v-1014h-167v1014h-196zM984 1502q0 54 37.5 91t85.5 37q52 0 79.5 -31t27.5 -82q0 -57 -36.5 -93 t-86.5 -36q-45 0 -76 31t-31 83zM1012 0v1139h166v-1139h-166z" />
<glyph unicode="&#xfb02;" horiz-adv-x="1395" d="M76 1014v92l196 34v92q0 98 23.5 176.5t62 128.5t90.5 83.5t105.5 47.5t110.5 14q81 0 136 -21v-133q-55 20 -159 20q-93 0 -147.5 -72.5t-54.5 -207.5v-128h303v-126h-303v-1014h-167v1014h-196zM1015 0v1664h167v-1664h-167z" />
<glyph unicode="&#xfb03;" horiz-adv-x="2190" d="M76 1014v92l196 34v92q0 98 23.5 176.5t62 128.5t90.5 83.5t105.5 47.5t110.5 14q81 0 136 -21v-133q-55 20 -159 20q-93 0 -147.5 -72.5t-54.5 -207.5v-128h303v-126h-303v-1014h-167v1014h-196zM877 1014v92l196 34v92q0 98 23.5 176.5t62 128.5t90.5 83.5t105.5 47.5 t110.5 14q81 0 136 -21v-133q-55 20 -159 20q-93 0 -147.5 -72.5t-54.5 -207.5v-128h303v-126h-303v-1014h-167v1014h-196zM1785 1502q0 54 37.5 91t85.5 37q52 0 79.5 -31t27.5 -82q0 -57 -36.5 -93t-86.5 -36q-45 0 -76 31t-31 83zM1813 0v1139h166v-1139h-166z" />
<glyph unicode="&#xfb04;" horiz-adv-x="2196" d="M76 1014v92l196 34v92q0 98 23.5 176.5t62 128.5t90.5 83.5t105.5 47.5t110.5 14q81 0 136 -21v-133q-55 20 -159 20q-93 0 -147.5 -72.5t-54.5 -207.5v-128h303v-126h-303v-1014h-167v1014h-196zM877 1014v92l196 34v92q0 98 23.5 176.5t62 128.5t90.5 83.5t105.5 47.5 t110.5 14q81 0 136 -21v-133q-55 20 -159 20q-93 0 -147.5 -72.5t-54.5 -207.5v-128h303v-126h-303v-1014h-167v1014h-196zM1816 0v1664h167v-1664h-167z" />
<glyph horiz-adv-x="2048" />
<glyph horiz-adv-x="2048" />
<glyph unicode="&#xd;" horiz-adv-x="2048" />
<glyph />
<glyph />
<glyph />
<glyph />
<glyph />
<glyph />
<glyph />
<glyph unicode="&#x9;" />
<glyph unicode="&#xa;" />
<glyph />
<glyph />
<glyph />
<glyph />
<glyph />
<glyph />
<glyph />
<glyph />
<glyph />
<glyph />
<glyph />
<glyph />
<glyph unicode=" "  horiz-adv-x="655" />
<glyph unicode="&#x09;" horiz-adv-x="655" />
<glyph unicode="&#xa0;" horiz-adv-x="655" />
<glyph unicode="!" horiz-adv-x="601" d="M184 108q-1 58 36 99.5t85 41.5q52 0 81 -35t31 -89q1 -60 -35 -100.5t-87 -40.5q-45 0 -77.5 35t-33.5 89zM211 1780h187l-18 -1307h-148z" />
<glyph unicode="&#x22;" horiz-adv-x="1214" d="M274 1685h183l-24 -719h-134zM756 1685h183l-24 -719h-134z" />
<glyph unicode="#" horiz-adv-x="1556" d="M203 358v119h223l40 437h-227v117h238l31 338h145l-32 -338h374l30 338h145l-31 -338h230v-117h-241l-40 -437h234l1 -119h-246l-33 -358h-140l31 358h-376l-33 -358h-143l32 358h-212zM570 477h376l38 437h-374z" />
<glyph unicode="$" horiz-adv-x="1382" d="M238 74l41 139q64 -39 170 -66.5t210 -27.5q163 0 254 62t91 185q0 29 -6 55t-14.5 47t-27 42.5t-33.5 37t-44.5 34.5t-49 31t-58.5 31.5t-62 30l-69 31.5q-398 181 -398 456q0 89 34.5 159t94 113t130 67.5t152.5 32.5l4 218h124l-3 -215q205 -9 315 -81l-35 -133 q-126 82 -326 82q-85 0 -157.5 -22.5t-121.5 -74.5t-49 -124q0 -50 15.5 -92t39.5 -73t71 -64t92 -57t119 -60q54 -26 88.5 -43.5t84.5 -46.5t82 -53.5t68.5 -60t57 -71.5t34.5 -82t14 -96q0 -181 -117 -283t-318 -116l-2 -221h-124l2 221q-123 6 -227.5 33t-145.5 55z" />
<glyph unicode="%" horiz-adv-x="1944" d="M85 1083q0 95 31 173t83.5 128t119 78t141.5 30q88 2 155.5 -28.5t108.5 -86t61.5 -128t20.5 -158.5q0 -185 -109.5 -293t-265.5 -112q-105 -2 -185.5 53t-120.5 145t-40 199zM234 1089q0 -126 56 -209t151 -82q98 2 157 78t59 210t-53.5 214.5t-152.5 79.5 q-98 -2 -157.5 -80t-59.5 -211zM567 0l658 1530h145l-658 -1530h-145zM1138 452q0 95 31 173t83.5 128t119 78t141.5 30q88 3 155.5 -27.5t108 -86.5t61 -128t20.5 -158q0 -125 -53.5 -218t-137 -138.5t-183.5 -48.5q-105 -2 -185.5 52.5t-120.5 144.5t-40 199zM1287 458 q0 -126 56 -208.5t150 -81.5q98 1 157 77.5t59 210.5t-53.5 214.5t-151.5 79.5q-98 -2 -157.5 -80t-59.5 -212z" />
<glyph unicode="&#x26;" horiz-adv-x="1532" d="M148 386q0 252 336 400q-86 110 -136 207.5t-50 203.5q0 162 109.5 255.5t293.5 93.5q169 0 270.5 -98t101.5 -234q0 -88 -27 -161t-79.5 -130t-117 -99.5t-151.5 -82.5q75 -102 201.5 -259.5t202.5 -237.5q109 101 109 270q0 122 -38 214h147q35 -99 35 -214 q0 -228 -152 -358q57 -40 111.5 -55.5t125.5 -13.5v-88q-52 -15 -113 -15q-69 0 -125 20t-116 64q-73 -37 -162 -60.5t-172 -23.5q-277 0 -440.5 105t-163.5 297zM305 390q0 -123 109.5 -203.5t328.5 -80.5q115 0 239 53q-88 96 -208.5 248t-213.5 280 q-118 -55 -186.5 -126.5t-68.5 -170.5zM453 1200q0 -31 3 -57.5t14 -55t17.5 -46t28 -49t30 -44.5t38.5 -53.5t41 -54.5q144 60 224.5 148.5t80.5 223.5q0 85 -63.5 150t-169.5 65q-108 0 -176 -57.5t-68 -169.5z" />
<glyph unicode="'" horiz-adv-x="731" d="M274 1685h183l-24 -719h-134z" />
<glyph unicode="(" horiz-adv-x="848" d="M142 724q0 163 39 320t95 269.5t122 206t117 144t83 68.5l115 -57q-30 -22 -71.5 -65t-101.5 -129.5t-109 -189.5t-86 -254t-40 -313q-3 -127 14 -246t45 -210t67.5 -173.5t77.5 -140t80 -106t71 -75t53 -43.5l-115 -57q-23 14 -53 40t-75 75t-88 109.5t-87.5 148 t-77.5 185t-54 226.5t-21 267z" />
<glyph unicode=")" horiz-adv-x="848" d="M135 -248q30 22 71.5 65t101.5 129.5t109 189.5t86 254t40 313q3 127 -14 246t-45 210t-67.5 173.5t-77.5 140t-80 106t-71 75t-53 43.5l115 57q23 -14 53 -40t75 -75t88 -109.5t87.5 -148t77.5 -185t54 -226.5t21 -267q0 -163 -39 -320t-95 -269.5t-122 -206t-117 -144 t-83 -68.5z" />
<glyph unicode="*" horiz-adv-x="1226" d="M139 1340l71 126l237 -151l131 -104q0 3 -14 81.5t-15 82.5l-14 283h146l-10 -281l-26 -165l128 108l238 152l72 -124l-247 -133l-156 -61l157 -57l250 -128l-74 -129l-235 150l-133 104q3 -6 29 -165l16 -280l-146 -1l10 281l25 167l-128 -110l-236 -152l-73 125 l246 134l157 60q-4 2 -79 29t-79 28z" />
<glyph unicode="+" horiz-adv-x="1393" d="M232 706v134h237l163 -8l-5 171v244h136v-244l-6 -171l149 8h255v-134h-255l-149 5l6 -172v-251h-136v251l5 172l-163 -5h-237z" />
<glyph unicode="," horiz-adv-x="601" d="M164 -409q56 32 99.5 118t43.5 195q0 63 -32 127.5t-74 79.5v48l105 99q82 -39 120.5 -124t38.5 -179q0 -162 -71.5 -285.5t-172.5 -168.5l-56 69z" />
<glyph unicode="-" horiz-adv-x="1350" d="M247 705v135h856v-135h-856z" />
<glyph unicode="." horiz-adv-x="601" d="M184 108q-1 58 36 99.5t86 41.5q52 0 81 -35t30 -89q2 -60 -34.5 -100.5t-87.5 -40.5q-45 0 -77.5 35t-33.5 89z" />
<glyph unicode="/" horiz-adv-x="854" d="M66 -363l570 1962h151l-571 -1962h-150z" />
<glyph unicode="0" horiz-adv-x="1378" d="M152 643q2 141 46 259.5t118.5 198.5t175 124.5t215.5 44.5q116 0 206 -32.5t149 -89t97 -138t53.5 -173t14.5 -200.5q-2 -287 -154 -468t-391 -181q-113 0 -204 35.5t-151 96.5t-100.5 145.5t-58 178.5t-16.5 199zM315 649q0 -109 22 -205t65.5 -174.5t117 -125.5 t168.5 -48q175 -2 274.5 141.5t100.5 392.5q0 113 -20.5 206.5t-63 167t-114.5 114.5t-168 41q-174 1 -277.5 -137t-104.5 -373z" />
<glyph unicode="1" horiz-adv-x="914" d="M127 1078q93 28 212.5 93.5t165.5 106.5l78 -22v-1256h-174v1067q-150 -63 -262 -90z" />
<glyph unicode="2" horiz-adv-x="1266" d="M156 86q111 65 210.5 135.5t195 154.5t164 167t110.5 175t42 177q0 120 -71.5 189t-205.5 69q-97 0 -194 -43.5t-158 -110.5l-71 95q64 77 181 135t260 58q114 0 199 -30t134 -84t72.5 -121t23.5 -148q0 -102 -46.5 -208t-131 -205t-195 -189.5t-243.5 -171.5l688 5v-135 h-939z" />
<glyph unicode="3" horiz-adv-x="1136" d="M105 1127q70 60 184 108.5t238 48.5q115 0 208 -37t151.5 -116.5t58.5 -190.5q0 -126 -82 -226t-211 -158q171 -12 271 -117.5t100 -246.5q0 -103 -48 -198.5t-134 -169t-215.5 -117.5t-281.5 -44q-93 0 -195 18l-1 115q87 -16 165 -14q121 1 224 35t171 89.5 t106.5 126.5t38.5 147q0 69 -23.5 125.5t-69.5 97.5t-122 58.5t-174 6.5l-111 -27l-36 116q97 19 185 53q133 49 205 132t73 178q1 116 -72 174t-195 58q-186 0 -342 -121z" />
<glyph unicode="4" horiz-adv-x="1314" d="M104 79q44 86 297.5 615.5t287.5 612.5h59l104 -64q-33 -77 -227 -465.5t-268 -533.5l-67 -115h537l13 487h153v-487h251v-129h-251v-376h-166v376h-682z" />
<glyph unicode="5" horiz-adv-x="1222" d="M203 -335l1 113q45 -5 80 -5q130 0 245 35.5t196.5 96t129 144.5t47.5 178q0 325 -344 325q-137 2 -306 -61l-41 25l61 736h750l-16 -144h-603l-49 -477q152 46 277 46q210 0 325 -117t115 -322q0 -71 -22.5 -141.5t-65 -135.5t-107.5 -121t-145.5 -97.5t-184.5 -65.5 t-219 -25q-83 0 -124 13z" />
<glyph unicode="6" horiz-adv-x="1377" d="M168 570q0 155 49 301t131 260t188.5 206t223 150t232.5 81l46 -108q-199 -51 -357 -181t-243 -297.5t-89 -340.5q-2 -111 15.5 -204.5t57 -170.5t111 -121t168.5 -44q67 0 123 24t94.5 64.5t65.5 94t39.5 111t12.5 117.5q0 91 -22.5 159.5t-62 107t-86.5 57.5t-101 19 q-66 0 -120 -18.5t-82 -41.5l-47 100q35 34 112.5 62t170.5 28q95 0 173.5 -36.5t128.5 -97.5t77.5 -139.5t27.5 -165.5q0 -109 -33.5 -208.5t-97 -179t-165.5 -127t-229 -47.5q-118 0 -216 47t-162 127.5t-99 186.5t-35 225z" />
<glyph unicode="7" horiz-adv-x="1236" d="M150 1135l1 136h937l37 -46l-569 -1555l-179 52q165 351 564 1412z" />
<glyph unicode="8" horiz-adv-x="1297" d="M157 385q0 124 83.5 235t247.5 184q-61 36 -106 72t-84.5 83.5t-60 107.5t-20.5 130q0 90 36.5 161.5t100 116t144.5 67.5t173 23q190 0 310.5 -95.5t120.5 -252.5q0 -123 -76.5 -240.5t-222.5 -186.5q65 -34 109.5 -60.5t95.5 -65.5t82 -77t51.5 -88.5t21.5 -107.5 q1 -81 -25.5 -148.5t-73 -115t-110 -80t-136 -48t-151.5 -15.5q-76 0 -147.5 13.5t-138 44.5t-116 76.5t-79 114t-29.5 152.5zM318 398q0 -140 92 -218t264 -78q136 0 230 73t94 196q0 62 -24.5 111.5t-87 95.5t-103 69t-135.5 71q-30 15 -45 23q-125 -46 -205 -138 t-80 -205zM371 1207q0 -49 17.5 -93t44.5 -78t71.5 -69t85 -60t98.5 -56q113 39 186.5 134t74.5 210q3 113 -73.5 183t-209.5 70q-128 0 -211.5 -64.5t-83.5 -176.5z" />
<glyph unicode="9" horiz-adv-x="1396" d="M180 722q0 238 142 390t388 152q120 0 216.5 -47t158 -128t94 -186t32.5 -225q0 -162 -50.5 -316t-135.5 -274t-194 -217.5t-227.5 -158.5t-235.5 -85l-57 103q158 39 295.5 135t228 218.5t143 259t55.5 261.5q2 116 -16 211.5t-58.5 170.5t-110 117t-163.5 42 q-78 0 -144 -33.5t-107 -87.5t-63.5 -118t-22.5 -129q0 -186 81.5 -289.5t205.5 -103.5q50 0 92.5 10t61.5 19.5t46 25.5l40 -95q-33 -36 -107 -63t-176 -27q-96 0 -175.5 39.5t-130.5 105.5t-78.5 149.5t-27.5 173.5z" />
<glyph unicode=":" horiz-adv-x="601" d="M184 108q-1 58 36 99.5t86 41.5q52 0 81 -35t30 -89q2 -60 -34.5 -100.5t-87.5 -40.5q-45 0 -77.5 35t-33.5 89zM184 932q-1 58 36 99.5t86 41.5q52 0 81 -35t30 -89q2 -60 -34.5 -100.5t-87.5 -40.5q-45 0 -77.5 35t-33.5 89z" />
<glyph unicode=";" horiz-adv-x="601" d="M153 -409q56 32 99.5 118t43.5 195q0 63 -32 127.5t-74 79.5v48l105 99q82 -39 120.5 -124t38.5 -179q0 -162 -71.5 -285.5t-172.5 -168.5l-56 69zM184 932q-1 58 36 99.5t86 41.5q52 0 81 -35t30 -89q2 -60 -34.5 -100.5t-87.5 -40.5q-45 0 -77.5 35t-33.5 89z" />
<glyph unicode="&#x3c;" horiz-adv-x="1368" d="M171 712v122l962 459v-156l-789 -364l789 -360v-159z" />
<glyph unicode="=" horiz-adv-x="1397" d="M241 428v127h915v-127h-915zM241 986v128h915v-128h-915z" />
<glyph unicode="&#x3e;" horiz-adv-x="1368" d="M235 254v159l789 360l-789 364v156l962 -459v-122z" />
<glyph unicode="?" horiz-adv-x="1047" d="M134 1672v123q16 13 80.5 27.5t128.5 14.5q167 0 290.5 -46.5t190.5 -125.5t92.5 -176.5t9.5 -207.5q-7 -63 -36.5 -117t-70.5 -92.5t-89 -72.5t-95 -63t-86 -57.5t-64.5 -63.5t-27.5 -73q-1 -14 -1 -28.5t0.5 -27t3.5 -28.5t4.5 -26.5t6.5 -28.5t7 -26.5t8.5 -28.5 t9 -26.5t9.5 -28t9 -27.5l-127 -1q-33 44 -62 129t-30 165q-1 45 22.5 86.5t63 74.5t87 64.5t97 63.5t91 64.5t70 73.5t33.5 86q37 198 -82.5 311t-359.5 113q-125 0 -183 -24zM389 105q-1 56 35.5 96.5t83.5 40.5q51 0 79 -34t30 -86q1 -59 -35 -98.5t-85 -39.5 q-43 0 -75 34t-33 87z" />
<glyph unicode="@" horiz-adv-x="2218" d="M224 425q0 249 80.5 460.5t219.5 355t327.5 223.5t401.5 80q221 0 388.5 -82t262.5 -243.5t95 -383.5q0 -155 -31.5 -291t-86 -233.5t-125.5 -168.5t-151 -105.5t-162 -34.5q-67 0 -98 46.5t-36 134.5q-7 81 15 221q-39 -81 -81.5 -150.5t-93 -128.5t-106.5 -93t-110 -34 q-52 0 -102 27t-91.5 78.5t-65.5 138t-22 193.5q2 87 23 174t65.5 171t107 148t155 103.5t202.5 39.5q153 0 245 -57l133 26q-92 -334 -129 -609q-22 -161 -17 -234t44 -73q67 0 136 54t123 144t88.5 218.5t34.5 267.5q0 624 -639 624q-137 0 -266 -44.5t-237 -131 t-189.5 -205.5t-127 -276.5t-45.5 -334.5q0 -168 39 -303t106 -225t160.5 -150.5t199 -87t225.5 -26.5q139 0 244 28.5t169 64.5l30 -100q-66 -44 -194 -75t-264 -31q-145 0 -272.5 34t-234 106t-182.5 176t-118.5 250.5t-42.5 323.5zM795 464q-3 -154 42 -242.5t129 -88.5 q69 0 164.5 137.5t169 314t92.5 300.5q-26 34 -84.5 52.5t-117.5 18.5q-74 0 -138.5 -29.5t-110 -78.5t-78.5 -113t-49.5 -133t-18.5 -138z" />
<glyph unicode="A" horiz-adv-x="1393" d="M33 0l588 1538h166l574 -1538h-183l-147 418h-665l-153 -418h-180zM412 545h575l-244 695l-38 120l-38 -121z" />
<glyph unicode="B" horiz-adv-x="1350" d="M206 0v1523l92 -1q62 0 165.5 6.5t174.5 6.5q247 0 372.5 -92.5t125.5 -263.5q0 -78 -22.5 -149.5t-79.5 -133t-142 -82.5q142 -7 245.5 -110.5t103.5 -250.5q0 -112 -31.5 -195.5t-100.5 -145.5t-186.5 -94t-281.5 -32q-49 0 -110 2.5t-132.5 6.5t-103.5 5h-89zM374 130 q105 -20 286 -20q204 0 306.5 74.5t102.5 248.5q0 284 -366 290q-295 0 -329 -4v-589zM374 848q30 -4 92 -5h70h86q94 1 99 1q118 9 184.5 91.5t66.5 219.5q0 260 -366 260q-149 0 -232 -12v-555z" />
<glyph unicode="C" horiz-adv-x="1328" d="M107 754q0 148 35.5 274.5t99.5 219.5t151 159t191 98.5t219 32.5q80 0 152 -7.5t108.5 -15.5t82.5 -20.5t54 -14.5l-24 -150q-2 1 -42.5 16.5t-72.5 25t-101 19t-148 9.5q-242 0 -389.5 -167.5t-147.5 -466.5q0 -187 61 -332.5t182 -230.5t284 -85q128 0 236.5 28.5 t158.5 61.5l2 -144q-1 0 -67 -23t-93.5 -30t-97.5 -17t-146 -10q-312 0 -500 211.5t-188 558.5z" />
<glyph unicode="D" horiz-adv-x="1479" d="M206 0v1522q107 0 120 1q44 0 159.5 6.5t178.5 6.5q357 0 539 -190t181 -541q0 -380 -196 -603q-192 -218 -533 -218h-15q-36 1 -151.5 7t-171.5 7q-40 2 -111 2zM375 128q125 -18 262 -18h28q122 2 220 42.5t170.5 121t112.5 208.5q41 132 40 303q0 327 -144 477 q-144 152 -440 151q-111 0 -249 -14v-1271z" />
<glyph unicode="E" horiz-adv-x="1203" d="M206 0v1522h858v-131h-689v-539h503v-131h-503v-588h762v-133h-931z" />
<glyph unicode="F" horiz-adv-x="1085" d="M206 0v1522h851v-131h-682v-561h509v-131h-509v-699h-169z" />
<glyph unicode="G" horiz-adv-x="1442" d="M110 750q0 190 54.5 341.5t150.5 248t223.5 147.5t276.5 51q98 0 167.5 -8.5t150.5 -28.5t102 -24l-7 -152q-174 80 -423 80q-108 0 -201.5 -41.5t-164.5 -119.5t-112 -200t-41 -274q0 -191 59 -338.5t176.5 -232.5t278.5 -85q112 0 210 20.5t148 46.5v436l-316 11v122 h479v-659q-25 -1 -74 -18.5t-101 -37t-145 -35.5t-198 -16q-160 0 -291.5 58t-219 160.5t-135 243t-47.5 304.5z" />
<glyph unicode="H" horiz-adv-x="1542" d="M206 0v1522h169v-682h792v682h169v-1522h-169v710h-792v-710h-169z" />
<glyph unicode="I" horiz-adv-x="613" d="M221 0v1522h171v-1522h-171z" />
<glyph unicode="J" horiz-adv-x="694" d="M-39 -243q102 28 184.5 98.5t113.5 175.5q17 55 25 152t8.5 158t0.5 213v968h172v-985q0 -17 1 -99v-69v-41q-1 -27 -3 -85.5t-6 -99t-11 -78.5q-16 -87 -61 -160t-106.5 -121t-129 -77t-135.5 -39z" />
<glyph unicode="K" horiz-adv-x="1364" d="M206 0v1522h169v-821l675 821h201l-541 -646q17 -26 223 -333.5t277 -431.5l67 -111h-196q-8 13 -26.5 48t-35.5 65q-46 81 -120 195.5t-166.5 251.5t-128.5 193l-229 -265v-488h-169z" />
<glyph unicode="L" horiz-adv-x="1066" d="M206 0v1522h172v-1389h629v-133h-801z" />
<glyph unicode="M" horiz-adv-x="1925" d="M149 -1l162 1523h240l337 -989l75 -286l73 286l318 989h228l196 -1522h-171l-106 947l-44 450l-124 -450l-323 -962h-93l-339 962l-136 450l-38 -450l-91 -947z" />
<glyph unicode="N" horiz-adv-x="1553" d="M205 0v1522h157l701 -1060l142 -247l-12 311v996h155v-1522h-155l-687 1034l-156 265l11 -329v-970h-156z" />
<glyph unicode="O" horiz-adv-x="1572" d="M111 769q4 185 59 332.5t150 241.5t219.5 144t270.5 51h6q298 0 474 -211q172 -205 171 -537v-26q-4 -185 -56.5 -333t-143.5 -244t-213.5 -148t-267.5 -55h-16q-196 0 -344 96q-154 100 -234 280q-75 170 -75 387v22zM282 758v-8q0 -128 32 -240q32 -116 94 -205 q60 -89 158 -141q96 -51 214 -50h5q230 2 366.5 173t138.5 485q0 133 -31 248t-91 202.5t-154 137.5q-92 49 -205 49h-5q-111 -1 -204.5 -42.5t-164.5 -121t-111.5 -204.5t-41.5 -283z" />
<glyph unicode="P" horiz-adv-x="1279" d="M206 0v1522h82q54 0 181.5 7t196.5 7q527 0 527 -491q0 -245 -152 -380.5t-419 -137.5q-48 0 -99 1.5t-94 4t-54 2.5v-535h-169zM375 664q93 -12 237 -12q90 1 162.5 22t129.5 65.5t88.5 121.5t31.5 183q0 197 -100 286q-95 84 -286 84h-22q-156 -4 -241 -16v-734z" />
<glyph unicode="Q" horiz-adv-x="1570" d="M110 769q4 185 59 332.5t150 241.5t219.5 144t270.5 51h6q297 0 473 -211q172 -205 172 -537v-26q-7 -308 -141.5 -501.5t-359.5 -253.5q131 -158 373 -158q123 0 178 23v-123q-24 -16 -73.5 -27t-103.5 -11q-168 0 -294.5 59t-238.5 213q-4 0 -11 -0.5t-10 -0.5h-16 q-196 0 -345 96q-154 101 -233 280q-75 170 -75 387v22zM281 758v-8q0 -127 31 -240q33 -116 94.5 -205t159.5 -141q95 -50 213 -50h5q230 2 366.5 173t138.5 485q0 133 -31 248t-91 202.5t-153 137.5q-92 49 -206 49h-5q-111 -1 -204.5 -42.5t-164.5 -121t-111.5 -204.5 t-41.5 -283z" />
<glyph unicode="R" horiz-adv-x="1359" d="M206 0v1522q89 1 100 1q39 0 163.5 6.5t196.5 6.5q522 0 522 -420q0 -168 -82.5 -276.5t-226.5 -149.5q52 -31 106 -107.5t90.5 -150.5t85 -178t75.5 -152q39 -73 58 -102h-192q-13 17 -54 102q-17 35 -45 100t-50.5 116.5t-55 114.5t-63 107t-70 79t-80.5 45 q-61 -2 -153 -2q-69 0 -156 1v-663h-169zM375 783q59 -6 284 -6q165 2 260 85.5t96 245.5q0 161 -89.5 232t-286.5 71q-174 0 -264 -16v-612z" />
<glyph unicode="S" horiz-adv-x="1154" d="M136 74l41 139q64 -39 170 -66.5t210 -27.5q163 0 254 62t91 185q0 29 -6 55t-14.5 47t-27 42.5t-33.5 37t-44.5 34.5t-49 31t-58.5 31.5t-62 30l-69 31.5q-398 181 -398 456q0 81 29 146.5t77 107.5t112.5 70t132.5 40t140 12q237 0 360 -82l-35 -133q-126 82 -326 82 q-85 0 -157.5 -22.5t-121.5 -74.5t-49 -124q0 -50 15.5 -92t39.5 -73t71 -64t92 -57t119 -60q54 -26 88.5 -43.5t84.5 -46.5t82 -53.5t68.5 -60t57 -71.5t34.5 -82t14 -96q0 -195 -136 -298t-364 -103q-138 0 -261 29t-171 61z" />
<glyph unicode="T" horiz-adv-x="1279" d="M62 1391v131h1160v-131h-498v-1391h-171v1391h-491z" />
<glyph unicode="U" horiz-adv-x="1474" d="M171 644v879h169l-1 -839q0 -163 27 -274.5t82 -175t127.5 -90.5t173.5 -27q75 0 133 17t107 57.5t80.5 105t49 162t17.5 226.5v837h168v-877q0 -661 -560 -661q-296 0 -435 166.5t-138 493.5z" />
<glyph unicode="V" horiz-adv-x="1331" d="M31 1522h179l391 -1085l76 -244l76 244l370 1085h178l-554 -1538h-142z" />
<glyph unicode="W" horiz-adv-x="1909" d="M32 1522h174l249 -1006l69 -335l74 335l298 1006h125l301 -1006l85 -332l64 331l236 1007h171l-392 -1538h-166l-325 1096l-37 182l-37 -182l-329 -1096h-148z" />
<glyph unicode="X" horiz-adv-x="1330" d="M73 0l490 782l-484 740l191 1l295 -465l107 -177l105 177l283 464h183l-480 -764l494 -758h-193l-314 503l-94 152l-91 -152l-309 -503h-183z" />
<glyph unicode="Y" horiz-adv-x="1249" d="M31 1522h181l374 -701l51 -115l44 115l359 701h179l-499 -935v-587h-172v584z" />
<glyph unicode="Z" horiz-adv-x="1309" d="M106 66l808 1209l85 112h-810v135h995l36 -64l-805 -1219l-86 -106h849v-133h-1036z" />
<glyph unicode="[" horiz-adv-x="841" d="M226 2v1542q0 115 29.5 154t120.5 39q110 0 312 -20v-90h-302v-1709l302 -2v-87q-140 -20 -312 -20q-91 0 -120.5 39t-29.5 154z" />
<glyph unicode="\" horiz-adv-x="854" d="M66 1599h151l570 -1962h-150z" />
<glyph unicode="]" horiz-adv-x="841" d="M153 -84l302 2v1709h-302v90q202 20 312 20q91 0 120.5 -39t29.5 -154v-1542q0 -115 -29.5 -154t-120.5 -39q-172 0 -312 20v87z" />
<glyph unicode="^" horiz-adv-x="1363" d="M189 509l414 1022h154l417 -1022h-160l-334 839l-330 -839h-161z" />
<glyph unicode="_" horiz-adv-x="1692" d="M-40 -297h1772v-105h-1772v105z" />
<glyph unicode="`" horiz-adv-x="557" d="M50 1678l120 103q93 -121 337 -398l-85 -68q-75 50 -194.5 165t-177.5 198z" />
<glyph unicode="a" horiz-adv-x="1145" d="M110 301q0 223 246 314q92 34 216 50.5t229 16.5v132q0 68 -17 111.5t-53.5 66t-81.5 30.5t-114 8q-83 0 -185 -31t-150 -66l-41 110q47 31 172.5 72.5t246.5 41.5q93 0 159.5 -15t121 -52.5t81.5 -108t27 -174.5v-823h-68q-49 0 -68.5 14t-19.5 66l-1 42 q-54 -49 -148 -85.5t-205 -36.5q-154 0 -250.5 85.5t-96.5 231.5zM275 314q0 -95 56.5 -150t174.5 -55q95 0 181.5 35t113.5 64v367q-79 0 -183.5 -13t-169.5 -40q-173 -65 -173 -208z" />
<glyph unicode="b" horiz-adv-x="1244" d="M184 64v1597h167v-475l-7 -170q145 140 347 140q95 0 175.5 -34.5t142.5 -100t97 -171t35 -238.5q0 -280 -159 -454.5t-415 -174.5q-113 0 -230 28t-153 53zM351 155q29 -22 92.5 -35.5t141.5 -13.5q77 0 145.5 30.5t122 89t85.5 152.5t33 212v10q1 206 -81 314 q-84 112 -244 111q-87 0 -166 -35t-129 -81v-754z" />
<glyph unicode="c" horiz-adv-x="1012" d="M106 553q0 130 35.5 240t102.5 191t169.5 126.5t230.5 45.5q93 0 168 -18t109 -41l-29 -132q-85 62 -257 62q-150 0 -255.5 -114.5t-111.5 -326.5v-23q0 -103 24 -185q28 -92 78 -150t115 -88t139 -30q89 0 165.5 24.5t122.5 54.5l35 -96q-55 -50 -148 -79.5t-200 -29.5 q-153 0 -266 75t-170 202.5t-57 291.5z" />
<glyph unicode="d" horiz-adv-x="1239" d="M102 533q0 275 158 449t414 174q122 0 221 -38l-3 68v478h167v-1676h-72q-44 0 -64.5 13t-20.5 56v69q-147 -142 -350 -142q-90 0 -169 32.5t-143 96.5t-101 172t-37 248zM273 556v-15q1 -207 83 -315q86 -112 241 -111q88 0 165 34.5t130 79.5v749q-65 56 -234 56 q-168 0 -275.5 -127.5t-109.5 -350.5z" />
<glyph unicode="e" horiz-adv-x="1128" d="M104 565q0 263 135 425.5t376 165.5h6q176 0 286 -116q112 -118 117 -312q0 -128 -9 -175h-748q0 -27 1 -40q7 -209 107 -306t269 -97q77 0 171 23t139 53l32 -97q-55 -46 -166 -75.5t-219 -29.5q-239 0 -368 153t-129 428zM274 665h593q1 24 1 46q0 81 -17 145 q-22 80 -84 130.5t-162 50.5q-134 0 -221.5 -91.5t-109.5 -280.5z" />
<glyph unicode="f" horiz-adv-x="801" d="M76 1014v92l196 34v92q0 98 23.5 176.5t62 128.5t90.5 83.5t105.5 47.5t110.5 14q81 0 136 -21v-133q-55 20 -159 20q-93 0 -147.5 -72.5t-54.5 -207.5v-128h303v-126h-303v-1014h-167v1014h-196z" />
<glyph unicode="g" horiz-adv-x="1224" d="M121 -194q0 79 48 142t111 98q-86 48 -86 166v5q1 58 38 118.5t98 104.5q-88 48 -138 130.5t-50 187.5q0 131 60.5 221.5t157.5 132t223 44.5h13q157 0 268 -68q38 20 99.5 34.5t120.5 14.5h107v-134h-232q69 -93 69 -225q0 -187 -127.5 -292.5t-323.5 -105.5 q-83 0 -154 21q-31 -24 -53.5 -63t-22.5 -79q0 -72 36 -99.5t127 -27.5h247q95 0 166 -16t113.5 -42t68.5 -64t35 -76t9 -85q0 -110 -74.5 -194.5t-198.5 -128.5q-121 -43 -270 -43h-7q-226 0 -352 79t-126 244zM284 -174q0 -119 78.5 -173.5t242.5 -54.5q102 0 187 22.5 t141 73t56 120.5q0 100 -67 143t-233 43h-154q-100 0 -159 10q-92 -76 -92 -184zM308 766q0 -121 71.5 -197.5t200.5 -76.5q132 0 207 67.5t75 212.5q0 134 -71 202q-70 68 -195 68h-4q-59 0 -107.5 -14t-89.5 -44t-64 -85.5t-23 -132.5z" />
<glyph unicode="h" horiz-adv-x="1309" d="M193 0v1664h167v-507l-8 -156q75 59 190.5 106.5t228.5 49.5h10q181 0 261 -106q81 -108 81 -368v-6v-677h-167v689v7q0 182 -54 252q-52 69 -184 69h-15q-81 -2 -175.5 -42t-167.5 -96v-879h-167z" />
<glyph unicode="i" horiz-adv-x="588" d="M183 1502q0 54 37.5 91t85.5 37q52 0 79.5 -31t27.5 -82q0 -57 -36.5 -93t-86.5 -36q-45 0 -76 31t-31 83zM211 0v1139h166v-1139h-166z" />
<glyph unicode="j" horiz-adv-x="562" d="M-95 -370q44 -19 116 -19q100 0 145 82.5t45 265.5v1180h166v-1116q0 -276 -83.5 -403t-255.5 -127q-109 0 -133 13v124zM181 1502q0 54 37.5 91t85.5 37q52 0 79.5 -31t27.5 -82q0 -57 -36.5 -93t-86.5 -36q-45 0 -76 31t-31 83z" />
<glyph unicode="k" horiz-adv-x="1166" d="M188 0v1661h166v-953l-4 -123l537 554h198l-445 -447l494 -692h-191l-414 581l-179 -180l4 -177v-224h-166z" />
<glyph unicode="l" horiz-adv-x="594" d="M214 0v1664h167v-1664h-167z" />
<glyph unicode="m" horiz-adv-x="1978" d="M193 0v1139h149l1 -146q75 60 193 111t226 53h12q104 0 168 -33q68 -35 102 -120q76 59 189.5 105.5t224.5 47.5h7q176 1 251 -99q76 -102 76 -355v-703h-166v695q0 87 -8 142t-32 99.5t-70 63.5q-42 17 -107 17h-14q-76 -1 -163.5 -37t-158.5 -86q13 -75 13 -186v-708 h-167v697q0 91 -9 148t-33 99t-68 58q-37 14 -93 14h-21q-76 -3 -171.5 -42.5t-163.5 -95.5v-878h-167z" />
<glyph unicode="n" horiz-adv-x="1288" d="M193 0v1139h149l1 -146q80 60 194 111t225 53h11q179 0 253 -99q78 -102 77 -353v-705h-167v706q0 176 -50 247q-47 65 -171 65h-22q-77 -1 -170 -42.5t-163 -97.5v-878h-167z" />
<glyph unicode="o" horiz-adv-x="1223" d="M105 591q4 266 148.5 415.5t369.5 149.5q104 0 188 -32t141.5 -87t95.5 -131.5t54 -164.5q16 -83 16 -176v-11q-4 -266 -147 -418t-369 -152q-131 0 -230 49t-156 135q-58 86 -86 192q-26 99 -25 214v17zM275 589q0 -100 19.5 -185.5t58.5 -153.5t104 -107t149 -40h5 q158 1 247 121q90 122 91 337q0 100 -19.5 184.5t-59 149.5t-103.5 102t-147 38h-5q-158 1 -248 -115q-91 -118 -92 -331z" />
<glyph unicode="p" horiz-adv-x="1247" d="M187 -506v1646h150l1 -133q149 149 356 149q90 0 169.5 -32.5t143 -96.5t100.5 -172t37 -248q0 -275 -157.5 -449t-413.5 -174q-124 0 -223 38l3 -161v-367h-166zM353 163q66 -57 235 -57q168 0 275.5 127.5t110.5 350.5v10q0 212 -83 320q-85 111 -242 111 q-89 0 -166.5 -35t-129.5 -81v-746z" />
<glyph unicode="q" horiz-adv-x="1238" d="M102 533q0 275 158 449t414 174q131 0 241 -42v2l145 28v-1650h-167v367l4 259q-146 -136 -345 -136q-90 0 -169 32.5t-143 96.5t-101 172t-37 248zM273 556v-15q0 -207 83 -315q85 -111 241 -111q88 0 165.5 34.5t130.5 79.5v749q-65 56 -235 56q-168 0 -275.5 -127.5 t-109.5 -350.5z" />
<glyph unicode="r" horiz-adv-x="826" d="M185 0v1139h142l10 -152q42 55 144.5 112t202.5 57q77 0 108 -13v-157q-44 23 -138 23q-90 0 -170 -40t-132 -92v-877h-167z" />
<glyph unicode="s" horiz-adv-x="984" d="M123 66l26 126q38 -27 136 -55t192 -29q113 0 181.5 45.5t68.5 131.5q0 35 -17 65.5t-37.5 50t-65 43.5t-70 35t-82.5 34q-72 29 -125.5 60t-101 73.5t-72.5 98.5q-24 54 -24 118v5q3 140 115 213.5t283 74.5h9q85 0 164 -18q83 -20 120 -41l-28 -127q-31 24 -105 43 t-154 19q-120 0 -184 -42q-66 -43 -65 -116q1 -81 61 -131q62 -51 188 -100q55 -22 94.5 -40t91 -50t83.5 -66t55 -83.5t23 -106.5q0 -148 -107 -230.5t-291 -82.5q-106 0 -208 24t-154 58z" />
<glyph unicode="t" horiz-adv-x="849" d="M81 1014v91q19 6 54.5 14t55.5 13t39.5 17t25.5 29q6 16 22.5 101.5t27.5 120.5h100v-260h354v-126h-354v-650q0 -85 7 -134t27.5 -74t45.5 -31.5t72 -6.5q50 0 117.5 18.5t96.5 38.5l29 -97q-45 -36 -135 -65t-166 -29q-58 0 -100.5 11t-81 40t-58.5 88t-20 147v744 h-159z" />
<glyph unicode="u" horiz-adv-x="1249" d="M183 471v669h166v-676q0 -108 11 -174t40 -104t71 -51t112 -13q81 0 170.5 33t143.5 74v911h167v-1152h-64q-45 0 -64.5 13t-19.5 55v61q-82 -57 -192 -95t-207 -38q-62 0 -111 12t-84 33.5t-60 56t-40 72.5t-24 90.5t-12 104t-3 118.5z" />
<glyph unicode="v" horiz-adv-x="1114" d="M37 1140h180l259 -708l90 -278l84 278l249 708h178l-442 -1158h-142z" />
<glyph unicode="w" horiz-adv-x="1635" d="M39 1140h167l229 -783l43 -180l40 180l221 783h165l223 -783l42 -184l43 179l221 788h163l-355 -1158h-154l-237 837l-30 147l-32 -147l-232 -837h-158z" />
<glyph unicode="x" horiz-adv-x="1137" d="M74 0l406 576l-406 564h189l272 -398l38 -62l36 67l272 393h187l-408 -561l411 -579h-193l-275 407l-40 63l-37 -70l-261 -400h-191z" />
<glyph unicode="y" horiz-adv-x="1107" d="M56 1140h178l274 -782l76 -224l66 224l237 782h180l-392 -1169q-69 -209 -150 -321.5t-191 -143.5q-54 -13 -103 -13q-26 0 -64.5 4.5t-46.5 9.5v137q38 -12 99 -12q220 0 314 368h-49z" />
<glyph unicode="z" horiz-adv-x="1072" d="M93 65l596 849l69 98h-616v128h812l29 -74l-594 -846l-71 -98h655v-122h-846z" />
<glyph unicode="{" horiz-adv-x="986" d="M118 724v110q125 41 188 71.5t63 63.5v575q0 114 32.5 155.5t124.5 41.5q117 0 297 -20v-92h-295v-657q0 -49 -37 -80q-47 -45 -208 -114q57 -23 122 -59.5t89 -60.5q34 -34 34 -76v-664h295v-85q-120 -28 -297 -28q-91 0 -124 41.5t-33 155.5v583q0 32 -73 70.5 t-178 68.5z" />
<glyph unicode="|" horiz-adv-x="842" d="M344 -187v1967h154v-1967h-154z" />
<glyph unicode="}" horiz-adv-x="986" d="M163 -82h295v664q0 42 34 76q24 24 89 60.5t122 59.5q-161 69 -208 114q-37 31 -37 80v657h-295v92q180 20 297 20q92 0 124.5 -41.5t32.5 -155.5v-575q0 -33 63 -63.5t188 -71.5v-110q-105 -30 -178 -68.5t-73 -70.5v-583q0 -114 -33 -155.5t-124 -41.5q-177 0 -297 28 v85z" />
<glyph unicode="~" horiz-adv-x="1438" d="M222 776q31 71 115.5 135t191.5 64q54 0 99.5 -17.5t77.5 -43t62.5 -51t68 -43t79.5 -17.5q131 0 220 125l79 -76q-33 -78 -114.5 -135t-193.5 -57q-54 0 -98.5 18t-76.5 43t-61.5 50.5t-67 43.5t-80.5 18q-124 0 -213 -126z" />
<glyph />
<glyph unicode="&#xa1;" horiz-adv-x="601" d="M184 1219q-1 60 35 100.5t87 40.5q45 0 77.5 -35t33.5 -89q1 -58 -36 -99.5t-85 -41.5q-52 0 -81 35t-31 89zM203 -436l18 1307h148l21 -1307h-187z" />
<glyph unicode="&#xa2;" horiz-adv-x="1194" d="M170 553q-1 162 52.5 291t161 210.5t256.5 97.5l6 221h114l-6 -219q78 -4 140 -20.5t91 -36.5l-29 -132q-85 62 -257 62q-150 0 -255.5 -114.5t-111.5 -326.5q-3 -116 24.5 -208.5t77.5 -150t115 -87.5t139 -30q89 0 165.5 24.5t122.5 54.5l35 -96q-47 -44 -125.5 -72 t-170.5 -35l-3 -202h-115l4 204q-135 14 -233.5 91.5t-148 199.5t-49.5 274z" />
<glyph unicode="&#xa3;" horiz-adv-x="1546" d="M141 54q0 57 53.5 95.5t158.5 44.5q2 4 16.5 28t24.5 44t22.5 51.5t19 69t6.5 78.5v299h-183v116h183v177q0 214 125.5 347.5t337.5 133.5q209 0 329 -94l-80 -122q-101 89 -266 89q-55 0 -102.5 -19t-89 -60t-65 -117t-22.5 -180v-155h385v-116h-384v-105 q3 -378 -106 -490q63 2 135.5 -16t155.5 -37.5t167 -19.5q273 0 273 231q0 51 -25 102.5t-64 70.5l119 61q50 -30 89 -99t39 -145q0 -159 -100 -250t-311 -91q-94 0 -193 20.5t-158 41.5t-130 33.5t-110 -3.5q-28 -32 -73 -55t-91 -23q-31 0 -58.5 18.5t-27.5 45.5z" />
<glyph unicode="&#xa4;" horiz-adv-x="1530" d="M216 277l200 200q-94 119 -94 274q0 153 93 272l-199 200l95 98l203 -205q112 76 249 76q138 0 253 -78l205 204l97 -96l-203 -203q91 -118 91 -268q0 -152 -92 -269l200 -200l-96 -96l-202 202q-113 -78 -253 -78q-136 0 -247 75l-203 -205zM457 751q0 -130 90 -223 t217 -93t216.5 93t89.5 223q0 131 -89.5 223.5t-216.5 92.5t-217 -93t-90 -223z" />
<glyph unicode="&#xa5;" horiz-adv-x="1542" d="M188 1522h182l330 -534l73 -139l69 144l336 529h178l-476 -723h365v-110h-390v-257h390v-110h-390v-322h-166v322h-406v110h406v257h-406v110h374z" />
<glyph unicode="&#xa6;" horiz-adv-x="842" d="M344 -186v831h154v-831h-154zM344 946v834h154v-834h-154z" />
<glyph unicode="&#xa7;" horiz-adv-x="1358" d="M218 783q0 170 140 303q-128 103 -128 256q0 76 29.5 135t75.5 95.5t109.5 59.5t125.5 32t129 9q239 0 361 -73l-33 -127q-112 75 -331 74q-64 0 -117.5 -10t-99 -31t-71 -58t-25.5 -88q0 -53 26 -98t70 -78t101 -63t120.5 -57.5t126.5 -56.5t120 -65.5t101 -79 t70 -101.5t26 -129q0 -152 -116 -276q108 -90 108 -216q0 -75 -30.5 -134t-78.5 -95.5t-113.5 -60.5t-131 -33.5t-134.5 -9.5q-136 0 -251.5 28.5t-169.5 64.5l33 127q49 -36 155 -65.5t236 -28.5q67 0 124.5 10.5t105.5 32.5t75.5 60t27.5 89q0 46 -26 85t-70.5 68 t-102 55.5t-121 51t-127 51t-121 60t-102 72.5t-70.5 94t-26 121zM371 810q0 -65 35 -115.5t100 -87.5t130.5 -64t154.5 -62t144 -64q57 105 57 188q0 58 -25.5 107t-65 82t-99 66t-113.5 55.5t-124.5 54t-118.5 58.5q-75 -122 -75 -218z" />
<glyph unicode="&#xa8;" horiz-adv-x="782" d="M57 1514q0 51 36 85t82 34q99 0 99 -105q0 -54 -34.5 -87t-82.5 -33q-43 0 -71.5 28t-28.5 78zM509 1514q0 51 35.5 85t81.5 34q50 0 74.5 -28t24.5 -77q0 -54 -34.5 -87t-82.5 -33q-43 0 -71 28.5t-28 77.5z" />
<glyph unicode="&#xa9;" horiz-adv-x="2133" d="M204 965q0 177 67.5 337.5t183 276t275 184t336.5 68.5t337 -68.5t275 -184t183 -276t68 -337.5q0 -178 -68 -339t-183 -277.5t-275 -185t-337 -68.5t-336.5 68.5t-275 185t-183 277.5t-67.5 339zM313 965q0 -158 58 -300t157.5 -245.5t240 -164.5t297.5 -61t297.5 61 t240 164.5t157.5 245.5t58 300q0 157 -58 299t-157.5 245t-240 164t-297.5 61t-297.5 -61t-240 -164t-157.5 -245t-58 -299zM627 961q0 105 32 194.5t93 155.5t154 103t209 37q150 0 242 -64l-26 -124q-96 68 -229 68q-152 0 -239.5 -99t-87.5 -260q0 -167 86 -269t230 -102 q137 0 251 66l35 -96q-49 -39 -130.5 -64.5t-175.5 -25.5q-133 0 -236 67t-155.5 175.5t-52.5 237.5z" />
<glyph unicode="&#xaa;" horiz-adv-x="1032" d="M139 924q0 174 179 241q151 57 399 57v79q0 103 -49 140.5t-166 37.5q-74 0 -166 -29.5t-130 -56.5l-43 93q34 32 150.5 71.5t221.5 39.5q163 0 248 -66t85 -227v-619h-54h-31.5t-22.5 2.5t-20 8t-9 17t-5 28.5v31q-44 -37 -124 -65.5t-157 -28.5q-138 0 -222 64.5 t-84 181.5zM287 934q0 -67 49.5 -105.5t135.5 -38.5q61 0 133 22.5t112 47.5v268q-238 0 -322 -40q-53 -25 -80.5 -59t-27.5 -95z" />
<glyph unicode="&#xab;" horiz-adv-x="1931" d="M245 542v141l653 448l44 -125l-534 -391l534 -388l-44 -121zM971 542v141l653 448l44 -125l-534 -391l534 -388l-44 -121z" />
<glyph unicode="&#xac;" horiz-adv-x="1470" d="M235 726v126h990v-529h-152v403h-838z" />
<glyph unicode="&#xad;" horiz-adv-x="1350" d="M247 705v135h856v-135h-856z" />
<glyph unicode="&#xae;" horiz-adv-x="2133" d="M204 965q0 177 67.5 337.5t183 276t275 184t336.5 68.5t337 -68.5t275 -184t183 -276t68 -337.5q0 -178 -68 -339t-183 -277.5t-275 -185t-337 -68.5t-336.5 68.5t-275 185t-183 277.5t-67.5 339zM313 965q0 -158 58 -300t157.5 -245.5t240 -164.5t297.5 -61t297.5 61 t240 164.5t157.5 245.5t58 300q0 157 -58 299t-157.5 245t-240 164t-297.5 61t-297.5 -61t-240 -164t-157.5 -245t-58 -299zM752 482v962h74q41 0 124 3t126 3q178 0 267.5 -75t89.5 -194q0 -248 -220 -298q39 -25 70 -70t64.5 -114.5t45.5 -90.5q11 -21 83 -126l-156 1 q-27 34 -62 105q-10 18 -35.5 73t-43 87.5t-50.5 68t-70 46.5h-172v-381h-135zM887 964q33 -3 174 -3q115 2 173.5 50.5t58.5 152.5q0 92 -60 140t-194 45q-71 -2 -152 -10v-375z" />
<glyph unicode="&#xaf;" horiz-adv-x="643" d="M50 1452v124h543v-124h-543z" />
<glyph unicode="&#xb0;" horiz-adv-x="909" d="M121 1278q0 143 95.5 237t237.5 94q140 0 236.5 -95t96.5 -236q0 -143 -95.5 -237t-237.5 -94q-139 0 -236 95.5t-97 235.5zM232 1278q0 -96 64.5 -162t157.5 -66q95 0 159 65t64 163q0 96 -65 161.5t-158 65.5q-94 0 -158 -64.5t-64 -162.5z" />
<glyph unicode="&#xb1;" horiz-adv-x="1393" d="M232 706v134h237l163 -8l-5 171v244h136v-244l-6 -171l149 8h255v-134h-255l-149 5l6 -172v-251h-136v251l5 172l-163 -5h-237zM251 0v126h890v-126h-890z" />
<glyph unicode="&#xb2;" horiz-adv-x="1194" d="M177 1501q51 79 160.5 137.5t242.5 58.5q176 0 267.5 -88t90.5 -215q-1 -112 -65.5 -221.5t-167.5 -199t-245 -172.5l545 4v-126h-774l-33 86q91 44 186 108t185.5 143.5t148 173t57.5 177.5q0 103 -58 156t-165 53q-180 0 -305 -159z" />
<glyph unicode="&#xb3;" horiz-adv-x="1194" d="M255 1591q56 46 149 75.5t161 32.5q169 5 260.5 -63t91.5 -174q0 -88 -54.5 -158t-161.5 -114q74 -2 131.5 -26t90 -62t49 -81t16.5 -88q0 -152 -115 -248.5t-336 -96.5q-108 0 -229 38l-10 110q116 -35 225 -34q158 1 231 62.5t73 161.5q2 89 -63.5 144t-179.5 56 l-119 -33l-29 98q77 16 167 52q165 66 161 202q-2 64 -58 106.5t-157 36.5q-60 -3 -127.5 -27.5t-118.5 -61.5z" />
<glyph unicode="&#xb4;" horiz-adv-x="557" d="M50 1383q233 254 337 398l120 -103q-49 -73 -175.5 -196t-195.5 -167z" />
<glyph unicode="&#xb5;" horiz-adv-x="1359" d="M216 -371v1511h166v-756q0 -137 66 -202.5t197 -66.5q76 0 155 39t133 81v905h166v-912q0 -63 9.5 -85t31.5 -22q41 0 90 42l24 -76q-17 -29 -73.5 -64.5t-117.5 -35.5q-113 0 -108 151q-151 -154 -324 -154q-97 0 -167.5 28.5t-115.5 100.5l24 -484h-156z" />
<glyph unicode="&#xb6;" horiz-adv-x="1319" d="M91 1277q0 201 143 317.5t415 116.5q51 0 222.5 -10.5t222.5 -11.5v-1689h-140v1579q-6 0 -72 2l-132 4t-78 1v-1586h-140v832q-225 0 -333 107.5t-108 337.5z" />
<glyph unicode="&#xb7;" horiz-adv-x="592" d="M179 731q-1 58 36 99.5t86 41.5q52 0 81 -35t30 -89q2 -60 -34.5 -100.5t-87.5 -40.5q-45 0 -77.5 35t-33.5 89z" />
<glyph unicode="&#xb8;" horiz-adv-x="468" d="M48 -436l12 109q28 -18 90 -18q135 0 143 165q11 124 -25 201l64 4l34 -4q60 -79 51 -253q-7 -119 -70.5 -175.5t-158.5 -56.5q-38 0 -80.5 8t-59.5 20z" />
<glyph unicode="&#xb9;" horiz-adv-x="1009" d="M208 1494q80 23 191 88.5t159 105.5l82 -21v-1005h-161v825q-29 -7 -106 -40t-133 -45z" />
<glyph unicode="&#xba;" horiz-adv-x="1033" d="M114 1148q1 94 27 171.5t67 128t95.5 85t112 49.5t117.5 15q185 0 287 -127t99 -340q-2 -118 -37.5 -208.5t-94 -142.5t-128.5 -78t-148 -26q-187 0 -293 128t-104 345zM273 1148q-1 -166 65 -263t181 -96q112 1 176.5 83.5t65.5 256.5q1 167 -61 262t-175 94 q-111 -2 -181 -84t-71 -253z" />
<glyph unicode="&#xbb;" horiz-adv-x="1931" d="M262 227l534 388l-534 391l44 125l653 -448v-141l-653 -436zM988 227l534 388l-534 391l44 125l653 -448v-141l-653 -436z" />
<glyph unicode="&#xbc;" horiz-adv-x="2428" d="M216 1494q80 23 191 88.5t159 105.5l82 -21v-1005h-161v825q-29 -7 -106 -40t-133 -45zM763 0l539 1530h152l-541 -1530h-150zM1333 299l474 832h52l99 -59l-384 -629l-56 -100h397v2l6 280l149 16v-298h192l1 -116h-193v-283h-156v283h-540z" />
<glyph unicode="&#xbd;" horiz-adv-x="2428" d="M216 1494q80 23 191 88.5t159 105.5l82 -21v-1005h-161v825q-29 -7 -106 -40t-133 -45zM764 0l539 1530h152l-541 -1530h-150zM1448 819q51 79 160.5 137.5t242.5 58.5q176 0 267.5 -88t90.5 -215q-1 -112 -65.5 -221.5t-167.5 -199t-245 -172.5l545 4v-126h-774l-33 86 q91 44 186 108t185.5 143.5t148 173t57.5 177.5q0 103 -58 156t-165 53q-181 0 -305 -159z" />
<glyph unicode="&#xbe;" horiz-adv-x="2428" d="M107 1591q56 46 149 75.5t161 32.5q169 5 260.5 -63t91.5 -174q0 -88 -54.5 -158t-161.5 -114q74 -2 131.5 -26t90 -62t49 -81t16.5 -88q0 -152 -115 -248.5t-336 -96.5q-108 0 -229 38l-10 110q116 -35 225 -34q158 1 231 62.5t73 161.5q2 89 -63.5 144t-179.5 56 l-119 -33l-29 98q77 16 167 52q165 66 161 202q-2 64 -58 106.5t-157 36.5q-60 -3 -127.5 -27.5t-118.5 -61.5zM763 0l539 1530h152l-541 -1530h-150zM1333 299l474 832h52l99 -59l-384 -629l-56 -100h397v2l6 280l149 16v-298h192l1 -116h-193v-283h-156v283h-540z" />
<glyph unicode="&#xbf;" horiz-adv-x="1047" d="M120 243q7 63 36.5 117t70.5 92.5t89 72.5t95 63t86 57.5t64.5 63.5t27.5 73q1 14 1 28.5t-0.5 27t-3.5 28.5t-4.5 26.5t-6.5 28.5t-7 26.5t-8.5 28.5t-9 26.5t-9.5 28t-9 27.5l127 1q33 -44 62 -129t30 -165q1 -45 -22.5 -86.5t-63 -74.5t-87 -64.5t-97 -63.5t-91 -64.5 t-70 -73.5t-33.5 -86q-37 -198 82.5 -311t359.5 -113q125 0 183 24v-123q-16 -13 -80.5 -27.5t-128.5 -14.5q-167 0 -290.5 46.5t-190.5 125.5t-92.5 176.5t-9.5 207.5zM429 1402q-1 59 35 98.5t85 39.5q43 0 75 -34t33 -87q1 -56 -35.5 -96.5t-83.5 -40.5q-51 0 -79 34 t-30 86z" />
<glyph unicode="&#xc0;" horiz-adv-x="1393" d="M33 0l588 1538h166l574 -1538h-183l-147 418h-665l-153 -418h-180zM360 1873l111 102q28 -31 168 -157.5t179 -157.5l-71 -71q-87 44 -203 128t-184 156zM412 545h575l-244 695l-38 120l-38 -121z" />
<glyph unicode="&#xc1;" horiz-adv-x="1393" d="M33 0l588 1538h166l574 -1538h-183l-147 418h-665l-153 -418h-180zM412 545h575l-244 695l-38 120l-38 -121zM579 1660q39 31 179 157.5t168 157.5l111 -102q-80 -80 -187.5 -159.5t-198.5 -124.5z" />
<glyph unicode="&#xc2;" horiz-adv-x="1393" d="M33 0l588 1538h166l574 -1538h-183l-147 418h-665l-153 -418h-180zM346 1684l277 298h149l280 -296l-110 -47l-244 223l-248 -223zM412 545h575l-244 695l-38 120l-38 -121z" />
<glyph unicode="&#xc3;" horiz-adv-x="1393" d="M33 0l588 1538h166l574 -1538h-183l-147 418h-665l-153 -418h-180zM288 1767q32 73 109.5 125t157.5 52q46 0 83 -15.5t61 -37.5t46.5 -44t50.5 -37.5t61 -15.5q97 0 186 105l67 -56q-33 -73 -110.5 -124.5t-156.5 -51.5q-46 0 -83 16t-61 38.5t-46.5 45t-51 38.5 t-62.5 16q-96 0 -185 -108zM412 545h575l-244 695l-38 120l-38 -121z" />
<glyph unicode="&#xc4;" horiz-adv-x="1393" d="M33 0l588 1538h166l574 -1538h-183l-147 418h-665l-153 -418h-180zM346 1798q0 54 36.5 89t84.5 35q52 0 78 -29t26 -80q0 -56 -35 -89.5t-86 -33.5q-45 0 -74.5 28.5t-29.5 79.5zM412 545h575l-244 695l-38 120l-38 -121zM825 1798q0 54 36.5 89t84.5 35q52 0 78.5 -29 t26.5 -80q0 -56 -35.5 -89.5t-85.5 -33.5q-45 0 -75 28.5t-30 79.5z" />
<glyph unicode="&#xc5;" horiz-adv-x="1393" d="M33 0l561 1469q-99 23 -153.5 88.5t-52.5 163.5q1 66 28 116.5t72.5 78.5t98.5 42t112 14q144 0 226.5 -65.5t81.5 -187.5q-1 -99 -54.5 -160.5t-141.5 -85.5l550 -1473h-183l-147 418h-665l-153 -418h-180zM412 545h575l-244 695l-38 120l-38 -121zM507 1721 q-1 -76 49 -120t139 -45q87 -1 140.5 38.5t53.5 123.5q0 76 -52 117t-139 42q-81 0 -135.5 -36.5t-55.5 -119.5z" />
<glyph unicode="&#xc6;" horiz-adv-x="1850" d="M-55 0l731 1522h1034v-131h-702v-541h526v-131h-526v-586h776v-133h-945v417h-506l-199 -417h-189zM393 544h446v866h-32z" />
<glyph unicode="&#xc7;" horiz-adv-x="1328" d="M107 754q0 148 35.5 274.5t99.5 219.5t151 159t191 98.5t219 32.5q80 0 152 -7.5t108.5 -15.5t82.5 -20.5t54 -14.5l-24 -150q-2 1 -42.5 16.5t-72.5 25t-101 19t-148 9.5q-242 0 -389.5 -167.5t-147.5 -466.5q0 -187 61 -332.5t182 -230.5t284 -85q128 0 236.5 28.5 t158.5 61.5l2 -144q-1 -1 -60.5 -21.5t-83 -27t-83.5 -17t-123 -12.5q38 -83 30 -218q-7 -119 -70.5 -175.5t-158.5 -56.5q-38 0 -80.5 8t-59.5 20l12 109q28 -18 90 -18q135 0 143 165q8 103 -12 166q-291 18 -463.5 227t-172.5 541z" />
<glyph unicode="&#xc8;" horiz-adv-x="1203" d="M206 0v1522h858v-131h-689v-539h503v-131h-503v-588h762v-133h-931zM335 1873l111 102q28 -31 168 -157.5t179 -157.5l-71 -71q-87 44 -203 128t-184 156z" />
<glyph unicode="&#xc9;" horiz-adv-x="1203" d="M206 0v1522h858v-131h-689v-539h503v-131h-503v-588h762v-133h-931zM553 1660q39 31 179 157.5t168 157.5l111 -102q-80 -80 -187.5 -159.5t-198.5 -124.5z" />
<glyph unicode="&#xca;" horiz-adv-x="1203" d="M206 0v1522h858v-131h-689v-539h503v-131h-503v-588h762v-133h-931zM321 1684l277 298h149l280 -296l-110 -47l-244 223l-248 -223z" />
<glyph unicode="&#xcb;" horiz-adv-x="1203" d="M206 0v1522h858v-131h-689v-539h503v-131h-503v-588h762v-133h-931zM321 1798q0 54 36.5 89t84.5 35q52 0 78 -29t26 -80q0 -56 -35 -89.5t-86 -33.5q-45 0 -74.5 28.5t-29.5 79.5zM800 1798q0 54 36.5 89t84.5 35q52 0 78.5 -29t26.5 -80q0 -56 -35.5 -89.5t-85.5 -33.5 q-45 0 -75 28.5t-30 79.5z" />
<glyph unicode="&#xcc;" horiz-adv-x="613" d="M-31 1873l111 102q28 -31 168 -157.5t179 -157.5l-71 -71q-87 44 -203 128t-184 156zM221 0v1522h171v-1522h-171z" />
<glyph unicode="&#xcd;" horiz-adv-x="613" d="M188 1660q39 31 179 157.5t168 157.5l111 -102q-80 -80 -187.5 -159.5t-198.5 -124.5zM221 0v1522h171v-1522h-171z" />
<glyph unicode="&#xce;" horiz-adv-x="613" d="M-45 1684l277 298h149l280 -296l-110 -47l-244 223l-248 -223zM221 0v1522h171v-1522h-171z" />
<glyph unicode="&#xcf;" horiz-adv-x="613" d="M-45 1798q0 54 36.5 89t84.5 35q52 0 78 -29t26 -80q0 -56 -35 -89.5t-86 -33.5q-45 0 -74.5 28.5t-29.5 79.5zM221 0v1522h171v-1522h-171zM434 1798q0 54 36.5 89t84.5 35q52 0 78.5 -29t26.5 -80q0 -56 -35.5 -89.5t-85.5 -33.5q-45 0 -75 28.5t-30 79.5z" />
<glyph unicode="&#xd0;" horiz-adv-x="1479" d="M62 737v114h144v671q107 0 120 1q44 0 159.5 6.5t178.5 6.5q357 0 539 -190t181 -541q0 -380 -196.5 -603t-547.5 -218q-36 1 -151.5 7t-171.5 7q-40 2 -111 2v737h-144zM375 128q138 -20 290 -18q122 2 220 42.5t170.5 121t112 209t40.5 297.5q1 330 -143.5 481.5 t-440.5 151.5q-111 0 -249 -14v-548h434v-114h-434v-609z" />
<glyph unicode="&#xd1;" horiz-adv-x="1553" d="M205 0v1522h157l701 -1060l142 -247l-12 311v996h155v-1522h-155l-687 1034l-156 265l11 -329v-970h-156zM377 1767q32 73 109.5 125t157.5 52q46 0 83 -15.5t61 -37.5t46.5 -44t50.5 -37.5t61 -15.5q97 0 186 105l67 -56q-33 -73 -110.5 -124.5t-156.5 -51.5 q-46 0 -83 16t-61 38.5t-46.5 45t-51 38.5t-62.5 16q-96 0 -185 -108z" />
<glyph unicode="&#xd2;" horiz-adv-x="1572" d="M111 769q4 185 59 332.5t150 241.5t219.5 144t270.5 51q301 2 479.5 -211t171.5 -563q-4 -185 -56.5 -333t-143.5 -244t-213.5 -148t-267.5 -55q-206 -4 -360.5 96.5t-233.5 279.5t-75 409zM282 758q-1 -132 31.5 -248t94 -205t159 -140.5t218.5 -50.5q230 2 366.5 173 t138.5 485q0 133 -31 248t-91 202.5t-153.5 137.5t-210.5 49q-111 -1 -204.5 -42.5t-164.5 -121t-111.5 -204.5t-41.5 -283zM470 1873l111 102q28 -31 168 -157.5t179 -157.5l-71 -71q-87 44 -203 128t-184 156z" />
<glyph unicode="&#xd3;" horiz-adv-x="1572" d="M111 769q4 185 59 332.5t150 241.5t219.5 144t270.5 51q301 2 479.5 -211t171.5 -563q-4 -185 -56.5 -333t-143.5 -244t-213.5 -148t-267.5 -55q-206 -4 -360.5 96.5t-233.5 279.5t-75 409zM282 758q-1 -132 31.5 -248t94 -205t159 -140.5t218.5 -50.5q230 2 366.5 173 t138.5 485q0 133 -31 248t-91 202.5t-153.5 137.5t-210.5 49q-111 -1 -204.5 -42.5t-164.5 -121t-111.5 -204.5t-41.5 -283zM689 1660q39 31 179 157.5t168 157.5l111 -102q-80 -80 -187.5 -159.5t-198.5 -124.5z" />
<glyph unicode="&#xd4;" horiz-adv-x="1572" d="M111 769q4 185 59 332.5t150 241.5t219.5 144t270.5 51q301 2 479.5 -211t171.5 -563q-4 -185 -56.5 -333t-143.5 -244t-213.5 -148t-267.5 -55q-206 -4 -360.5 96.5t-233.5 279.5t-75 409zM282 758q-1 -132 31.5 -248t94 -205t159 -140.5t218.5 -50.5q230 2 366.5 173 t138.5 485q0 133 -31 248t-91 202.5t-153.5 137.5t-210.5 49q-111 -1 -204.5 -42.5t-164.5 -121t-111.5 -204.5t-41.5 -283zM457 1684l277 298h149l280 -296l-110 -47l-244 223l-248 -223z" />
<glyph unicode="&#xd5;" horiz-adv-x="1572" d="M111 769q4 185 59 332.5t150 241.5t219.5 144t270.5 51q301 2 479.5 -211t171.5 -563q-4 -185 -56.5 -333t-143.5 -244t-213.5 -148t-267.5 -55q-206 -4 -360.5 96.5t-233.5 279.5t-75 409zM282 758q-1 -132 31.5 -248t94 -205t159 -140.5t218.5 -50.5q230 2 366.5 173 t138.5 485q0 133 -31 248t-91 202.5t-153.5 137.5t-210.5 49q-111 -1 -204.5 -42.5t-164.5 -121t-111.5 -204.5t-41.5 -283zM399 1767q32 73 109.5 125t157.5 52q46 0 83 -15.5t61 -37.5t46.5 -44t50.5 -37.5t61 -15.5q97 0 186 105l67 -56q-33 -73 -110 -124.5t-157 -51.5 q-46 0 -83 16t-61 38.5t-46.5 45t-51 38.5t-62.5 16q-96 0 -185 -108z" />
<glyph unicode="&#xd6;" horiz-adv-x="1572" d="M111 769q4 185 59 332.5t150 241.5t219.5 144t270.5 51q301 2 479.5 -211t171.5 -563q-4 -185 -56.5 -333t-143.5 -244t-213.5 -148t-267.5 -55q-206 -4 -360.5 96.5t-233.5 279.5t-75 409zM282 758q-1 -132 31.5 -248t94 -205t159 -140.5t218.5 -50.5q230 2 366.5 173 t138.5 485q0 133 -31 248t-91 202.5t-153.5 137.5t-210.5 49q-111 -1 -204.5 -42.5t-164.5 -121t-111.5 -204.5t-41.5 -283zM457 1798q0 54 36.5 89t84.5 35q52 0 78 -29t26 -80q0 -56 -35 -89.5t-86 -33.5q-45 0 -74.5 28.5t-29.5 79.5zM936 1798q0 54 36.5 89t84.5 35 q52 0 78.5 -29t26.5 -80q0 -56 -35.5 -89.5t-85.5 -33.5q-45 0 -75 28.5t-30 79.5z" />
<glyph unicode="&#xd7;" horiz-adv-x="1370" d="M250 424l348 347l-348 356l99 97l337 -362l336 362l99 -97l-348 -353l348 -350l-99 -98l-336 354l-337 -354z" />
<glyph unicode="&#xd8;" horiz-adv-x="1572" d="M111 769q4 185 59 332.5t150 241.5t219.5 144t270.5 51q101 0 193 -26l78 218l96 -28l-81 -225q177 -84 273 -270.5t92 -442.5q-4 -185 -56.5 -333t-143.5 -244t-213.5 -148t-267.5 -55q-115 -2 -211 27l-74 -205l-96 27l77 215q-177 88 -273.5 278.5t-91.5 442.5z M282 758q-2 -186 61.5 -337.5t183.5 -232.5l430 1197q-71 24 -153 24q-111 -1 -204.5 -42.5t-164.5 -121t-111.5 -204.5t-41.5 -283zM616 142q79 -29 169 -28q230 2 366.5 173t138.5 485q0 189 -62.5 340t-180.5 228z" />
<glyph unicode="&#xd9;" horiz-adv-x="1474" d="M171 644v879h169l-1 -839q0 -163 27 -274.5t82 -175t127.5 -90.5t173.5 -27q75 0 133 17t107 57.5t80.5 105t49 162t17.5 226.5v837h168v-877q0 -661 -560 -661q-296 0 -435 166.5t-138 493.5zM410 1873l111 102q28 -31 168 -157.5t179 -157.5l-71 -71q-87 44 -203 128 t-184 156z" />
<glyph unicode="&#xda;" horiz-adv-x="1474" d="M171 644v879h169l-1 -839q0 -163 27 -274.5t82 -175t127.5 -90.5t173.5 -27q75 0 133 17t107 57.5t80.5 105t49 162t17.5 226.5v837h168v-877q0 -661 -560 -661q-296 0 -435 166.5t-138 493.5zM629 1660q39 31 179 157.5t168 157.5l111 -102q-80 -80 -187.5 -159.5 t-198.5 -124.5z" />
<glyph unicode="&#xdb;" horiz-adv-x="1474" d="M171 644v879h169l-1 -839q0 -163 27 -274.5t82 -175t127.5 -90.5t173.5 -27q75 0 133 17t107 57.5t80.5 105t49 162t17.5 226.5v837h168v-877q0 -661 -560 -661q-296 0 -435 166.5t-138 493.5zM396 1684l277 298h149l280 -296l-110 -47l-244 223l-248 -223z" />
<glyph unicode="&#xdc;" horiz-adv-x="1474" d="M171 644v879h169l-1 -839q0 -163 27 -274.5t82 -175t127.5 -90.5t173.5 -27q75 0 133 17t107 57.5t80.5 105t49 162t17.5 226.5v837h168v-877q0 -661 -560 -661q-296 0 -435 166.5t-138 493.5zM396 1798q0 54 36.5 89t84.5 35q52 0 78 -29t26 -80q0 -56 -35 -89.5 t-86 -33.5q-45 0 -74.5 28.5t-29.5 79.5zM875 1798q0 54 36.5 89t84.5 35q52 0 78.5 -29t26.5 -80q0 -56 -35.5 -89.5t-85.5 -33.5q-45 0 -75 28.5t-30 79.5z" />
<glyph unicode="&#xdd;" horiz-adv-x="1249" d="M31 1522h181l374 -701l51 -115l44 115l359 701h179l-499 -935v-587h-172v584zM526 1660q39 31 179 157.5t168 157.5l111 -102q-80 -80 -187.5 -159.5t-198.5 -124.5z" />
<glyph unicode="&#xde;" horiz-adv-x="1269" d="M206 0v1522h169v-292q24 2 88.5 7t113.5 8t91 3q248 0 382.5 -112.5t134.5 -343.5q0 -245 -149.5 -372.5t-418.5 -127.5q-50 0 -242 12v-304h-169zM375 429q106 -14 225 -14q198 0 307 86.5t109 288.5q0 344 -403 336q-133 -4 -238 -22v-675z" />
<glyph unicode="&#xdf;" horiz-adv-x="1271" d="M44 1014v99l160 30q38 218 177 327t336 109q72 0 136.5 -16.5t116 -49t82 -85.5t30.5 -120q0 -65 -23.5 -121t-56.5 -94t-66 -72t-56.5 -71.5t-23.5 -75.5q0 -41 20.5 -77.5t53 -65.5t72.5 -59t79.5 -64.5t72 -74.5t53 -97.5t20.5 -124.5q0 -86 -35 -151.5t-93.5 -102.5 t-125.5 -55t-140 -18q-153 0 -231 33v132q89 -47 237 -47q91 0 155 48.5t64 142.5q0 50 -20 93.5t-51.5 76.5t-69.5 64t-76 64t-69.5 69t-51 86t-19.5 109q0 50 22 94.5t53.5 79.5t63.5 71t54 84t22 103q0 89 -63.5 131t-163.5 42q-154 0 -242.5 -116t-88.5 -369v-975h-167 v986v28h-147z" />
<glyph unicode="&#xe0;" horiz-adv-x="1145" d="M110 301q0 223 246 314q92 34 216 50.5t229 16.5v132q0 68 -17 111.5t-53.5 66t-81.5 30.5t-114 8q-83 0 -185 -31t-150 -66l-41 110q47 31 172.5 72.5t246.5 41.5q93 0 159.5 -15t121 -52.5t81.5 -108t27 -174.5v-823h-68q-49 0 -68.5 14t-19.5 66l-1 42 q-54 -49 -148 -85.5t-205 -36.5q-154 0 -250.5 85.5t-96.5 231.5zM231 1678l120 103q93 -121 337 -398l-85 -68q-75 50 -194.5 165t-177.5 198zM275 314q0 -95 56.5 -150t174.5 -55q95 0 181.5 35t113.5 64v367q-79 0 -183.5 -13t-169.5 -40q-173 -65 -173 -208z" />
<glyph unicode="&#xe1;" horiz-adv-x="1145" d="M110 301q0 223 246 314q92 34 216 50.5t229 16.5v132q0 68 -17 111.5t-53.5 66t-81.5 30.5t-114 8q-83 0 -185 -31t-150 -66l-41 110q47 31 172.5 72.5t246.5 41.5q93 0 159.5 -15t121 -52.5t81.5 -108t27 -174.5v-823h-68q-49 0 -68.5 14t-19.5 66l-1 42 q-54 -49 -148 -85.5t-205 -36.5q-154 0 -250.5 85.5t-96.5 231.5zM275 314q0 -95 56.5 -150t174.5 -55q95 0 181.5 35t113.5 64v367q-79 0 -183.5 -13t-169.5 -40q-173 -65 -173 -208zM461 1383q233 254 337 398l120 -103q-49 -73 -175.5 -196t-195.5 -167z" />
<glyph unicode="&#xe2;" horiz-adv-x="1145" d="M110 301q0 223 246 314q92 34 216 50.5t229 16.5v132q0 68 -17 111.5t-53.5 66t-81.5 30.5t-114 8q-83 0 -185 -31t-150 -66l-41 110q47 31 172.5 72.5t246.5 41.5q93 0 159.5 -15t121 -52.5t81.5 -108t27 -174.5v-823h-68q-49 0 -68.5 14t-19.5 66l-1 42 q-54 -49 -148 -85.5t-205 -36.5q-154 0 -250.5 85.5t-96.5 231.5zM212 1345l297 347h149l291 -346l-103 -44l-263 263l-274 -263zM275 314q0 -95 56.5 -150t174.5 -55q95 0 181.5 35t113.5 64v367q-79 0 -183.5 -13t-169.5 -40q-173 -65 -173 -208z" />
<glyph unicode="&#xe3;" horiz-adv-x="1145" d="M110 301q0 223 246 314q92 34 216 50.5t229 16.5v132q0 68 -17 111.5t-53.5 66t-81.5 30.5t-114 8q-83 0 -185 -31t-150 -66l-41 110q47 31 172.5 72.5t246.5 41.5q93 0 159.5 -15t121 -52.5t81.5 -108t27 -174.5v-823h-68q-49 0 -68.5 14t-19.5 66l-1 42 q-54 -49 -148 -85.5t-205 -36.5q-154 0 -250.5 85.5t-96.5 231.5zM170 1462q34 70 105 123t154 53q46 0 83.5 -15t62 -37t46.5 -44t50.5 -37t61.5 -15q104 0 192 104l67 -56q-38 -74 -106.5 -124.5t-152.5 -50.5q-49 0 -87 15.5t-62 37.5t-46 43.5t-49.5 37t-61.5 15.5 q-101 0 -191 -104zM275 314q0 -95 56.5 -150t174.5 -55q95 0 181.5 35t113.5 64v367q-79 0 -183.5 -13t-169.5 -40q-173 -65 -173 -208z" />
<glyph unicode="&#xe4;" horiz-adv-x="1145" d="M110 301q0 223 246 314q92 34 216 50.5t229 16.5v132q0 68 -17 111.5t-53.5 66t-81.5 30.5t-114 8q-83 0 -185 -31t-150 -66l-41 110q47 31 172.5 72.5t246.5 41.5q93 0 159.5 -15t121 -52.5t81.5 -108t27 -174.5v-823h-68q-49 0 -68.5 14t-19.5 66l-1 42 q-54 -49 -148 -85.5t-205 -36.5q-154 0 -250.5 85.5t-96.5 231.5zM249 1514q0 51 36 85t82 34q99 0 99 -105q0 -54 -34.5 -87t-82.5 -33q-43 0 -71.5 28t-28.5 78zM275 314q0 -95 56.5 -150t174.5 -55q95 0 181.5 35t113.5 64v367q-79 0 -183.5 -13t-169.5 -40 q-173 -65 -173 -208zM701 1514q0 51 35.5 85t81.5 34q50 0 74.5 -28t24.5 -77q0 -54 -34.5 -87t-82.5 -33q-43 0 -71 28.5t-28 77.5z" />
<glyph unicode="&#xe5;" horiz-adv-x="1145" d="M110 301q0 223 246 314q92 34 216 50.5t229 16.5v132q0 68 -17 111.5t-53.5 66t-81.5 30.5t-114 8q-83 0 -185 -31t-150 -66l-41 110q47 31 172.5 72.5t246.5 41.5q93 0 159.5 -15t121 -52.5t81.5 -108t27 -174.5v-823h-68q-49 0 -68.5 14t-19.5 66l-1 42 q-54 -49 -148 -85.5t-205 -36.5q-154 0 -250.5 85.5t-96.5 231.5zM273 1601q1 66 28 117t72 81t98.5 44.5t112.5 14.5q143 0 226 -68t82 -190q-1 -88 -46 -150.5t-113.5 -90t-153.5 -27.5q-142 0 -225 73.5t-81 195.5zM275 314q0 -95 56.5 -150t174.5 -55q95 0 181.5 35 t113.5 64v367q-79 0 -183.5 -13t-169.5 -40q-173 -65 -173 -208zM392 1601q-1 -77 49.5 -124t138.5 -48q86 0 140 42.5t54 127.5q0 77 -52.5 120t-138.5 44q-79 0 -134.5 -39t-56.5 -123z" />
<glyph unicode="&#xe6;" horiz-adv-x="1826" d="M110 301q0 110 64 189.5t182 124.5q171 67 443 67v119q0 74 -17 121t-53 70t-77 30.5t-105 7.5q-81 0 -185.5 -32t-157.5 -67l-42 112q49 31 178 72.5t248 41.5q136 0 218.5 -40t117.5 -142q138 178 389 181q180 2 291.5 -115.5t116.5 -312.5q0 -133 -8 -175h-748 q0 -27 1 -40q13 -402 374 -402q77 0 172.5 23t140.5 52l33 -97q-56 -46 -168 -75.5t-220 -29.5q-283 0 -409 204q-75 -93 -185 -148.5t-243 -55.5q-155 0 -253 85.5t-98 231.5zM278 314q0 -94 54.5 -149.5t170.5 -55.5q104 0 201 54.5t140 118.5q-43 117 -43 283v10 q-229 0 -353 -53q-88 -33 -129 -83.5t-41 -124.5zM972 665h592q6 110 -16 190.5t-84 131t-162 50.5q-133 0 -220.5 -91.5t-109.5 -280.5z" />
<glyph unicode="&#xe7;" horiz-adv-x="1012" d="M106 553q0 130 35.5 240t102.5 191t169.5 126.5t230.5 45.5q93 0 168 -18t109 -41l-29 -132q-85 62 -257 62q-150 0 -255.5 -114.5t-111.5 -326.5q-3 -116 24.5 -208.5t77.5 -150t115 -87.5t139 -30q89 0 165.5 24.5t122.5 54.5l35 -96q-50 -46 -134 -75t-182 -33 q37 -83 30 -217q-7 -119 -70.5 -175.5t-158.5 -56.5q-38 0 -80.5 8t-59.5 20l12 109q28 -18 90 -18q135 0 143 165q9 104 -13 169q-196 26 -307 180.5t-111 383.5z" />
<glyph unicode="&#xe8;" horiz-adv-x="1128" d="M104 565q0 263 135 425.5t376 165.5q180 2 292 -115.5t117 -312.5q0 -128 -9 -175h-748q0 -27 1 -40q7 -209 107 -306t269 -97q77 0 171 23t139 53l32 -97q-55 -46 -166 -75.5t-219 -29.5q-239 0 -368 153t-129 428zM252 1678l120 103q93 -121 337 -398l-85 -68 q-75 50 -194.5 165t-177.5 198zM274 665h593q6 110 -16 190.5t-84 131t-162 50.5q-134 0 -221.5 -91.5t-109.5 -280.5z" />
<glyph unicode="&#xe9;" horiz-adv-x="1128" d="M104 565q0 263 135 425.5t376 165.5q180 2 292 -115.5t117 -312.5q0 -128 -9 -175h-748q0 -27 1 -40q7 -209 107 -306t269 -97q77 0 171 23t139 53l32 -97q-55 -46 -166 -75.5t-219 -29.5q-239 0 -368 153t-129 428zM274 665h593q6 110 -16 190.5t-84 131t-162 50.5 q-134 0 -221.5 -91.5t-109.5 -280.5zM482 1383q233 254 337 398l120 -103q-49 -73 -175.5 -196t-195.5 -167z" />
<glyph unicode="&#xea;" horiz-adv-x="1128" d="M104 565q0 263 135 425.5t376 165.5q180 2 292 -115.5t117 -312.5q0 -128 -9 -175h-748q0 -27 1 -40q7 -209 107 -306t269 -97q77 0 171 23t139 53l32 -97q-55 -46 -166 -75.5t-219 -29.5q-239 0 -368 153t-129 428zM233 1345l297 347h149l291 -346l-103 -44l-263 263 l-274 -263zM274 665h593q6 110 -16 190.5t-84 131t-162 50.5q-134 0 -221.5 -91.5t-109.5 -280.5z" />
<glyph unicode="&#xeb;" horiz-adv-x="1128" d="M104 565q0 263 135 425.5t376 165.5q180 2 292 -115.5t117 -312.5q0 -128 -9 -175h-748q0 -27 1 -40q7 -209 107 -306t269 -97q77 0 171 23t139 53l32 -97q-55 -46 -166 -75.5t-219 -29.5q-239 0 -368 153t-129 428zM270 1514q0 51 36 85t82 34q99 0 99 -105 q0 -54 -34.5 -87t-82.5 -33q-44 0 -72 28t-28 78zM274 665h593q6 110 -16 190.5t-84 131t-162 50.5q-134 0 -221.5 -91.5t-109.5 -280.5zM722 1514q0 51 35.5 85t81.5 34q50 0 74.5 -28t24.5 -77q0 -54 -34.5 -87t-82.5 -33q-43 0 -71 28.5t-28 77.5z" />
<glyph unicode="&#xec;" horiz-adv-x="588" d="M-58 1678l120 103q93 -121 337 -398l-85 -68q-75 50 -194.5 165t-177.5 198zM211 0v1139h166v-1139h-166z" />
<glyph unicode="&#xed;" horiz-adv-x="588" d="M172 1383q233 254 337 398l120 -103q-49 -73 -175.5 -196t-195.5 -167zM211 0v1139h166v-1139h-166z" />
<glyph unicode="&#xee;" horiz-adv-x="588" d="M-77 1345l297 347h149l291 -346l-103 -44l-263 263l-274 -263zM211 0v1139h166v-1139h-166z" />
<glyph unicode="&#xef;" horiz-adv-x="588" d="M-17 1514q0 51 36 85t82 34q50 0 74 -28t24 -77q0 -54 -34 -87t-82 -33q-43 0 -71.5 28t-28.5 78zM211 0v1139h166v-1139h-166zM389 1514q0 51 35.5 85t82.5 34q50 0 74.5 -28t24.5 -77q0 -54 -34.5 -87t-82.5 -33q-43 0 -71.5 28t-28.5 78z" />
<glyph unicode="&#xf0;" horiz-adv-x="1207" d="M109 557q0 279 141.5 439t369.5 159q157 -2 264 -112q-44 131 -125 244t-188 196l-141 -160l-89 70l141 153q-129 82 -237 116l40 97q136 -42 278 -125q24 26 57.5 65.5t55.5 66.5l22 27l90 -69q-79 -92 -135 -151l9 -6q218 -162 336 -408t118 -547q0 -312 -135.5 -474 t-364.5 -165q-231 -4 -369 154.5t-138 429.5zM275 563q0 -223 96 -349t251 -126q66 0 123.5 30t103.5 88t73 153t27 215q0 197 -9 277q-22 77 -106 128t-208 51q-165 0 -258 -126.5t-93 -340.5z" />
<glyph unicode="&#xf1;" horiz-adv-x="1288" d="M193 0v1139h149l1 -146q80 60 194 111t225 53q186 3 263.5 -99t77.5 -353v-705h-167v706q0 176 -50.5 247t-192.5 65q-77 -1 -170 -42.5t-163 -97.5v-878h-167zM285 1462q34 70 105 123t154 53q46 0 83.5 -15t62 -37t46.5 -44t50.5 -37t61.5 -15q104 0 192 104l67 -56 q-38 -74 -106.5 -124.5t-152.5 -50.5q-49 0 -87 15.5t-62 37.5t-46 43.5t-49.5 37t-61.5 15.5q-101 0 -191 -104z" />
<glyph unicode="&#xf2;" horiz-adv-x="1223" d="M105 591q4 266 148.5 415.5t369.5 149.5q104 0 188 -32t141.5 -87t95.5 -131.5t54.5 -164.5t15.5 -187q-4 -266 -147 -418t-369 -152q-131 0 -230 49t-156.5 134.5t-85 192t-25.5 231.5zM269 1678l120 103q93 -121 337 -398l-85 -68q-75 50 -194.5 165t-177.5 198z M275 589q0 -100 19.5 -185.5t58.5 -153.5t104 -107t149 -40q162 -2 252 120.5t91 337.5q0 100 -19.5 184.5t-59 149.5t-103.5 102t-147 38q-162 2 -253 -115.5t-92 -330.5z" />
<glyph unicode="&#xf3;" horiz-adv-x="1223" d="M105 591q4 266 148.5 415.5t369.5 149.5q104 0 188 -32t141.5 -87t95.5 -131.5t54.5 -164.5t15.5 -187q-4 -266 -147 -418t-369 -152q-131 0 -230 49t-156.5 134.5t-85 192t-25.5 231.5zM275 589q0 -100 19.5 -185.5t58.5 -153.5t104 -107t149 -40q162 -2 252 120.5 t91 337.5q0 100 -19.5 184.5t-59 149.5t-103.5 102t-147 38q-162 2 -253 -115.5t-92 -330.5zM499 1383q233 254 337 398l120 -103q-49 -73 -175.5 -196t-195.5 -167z" />
<glyph unicode="&#xf4;" horiz-adv-x="1223" d="M105 591q4 266 148.5 415.5t369.5 149.5q104 0 188 -32t141.5 -87t95.5 -131.5t54.5 -164.5t15.5 -187q-4 -266 -147 -418t-369 -152q-131 0 -230 49t-156.5 134.5t-85 192t-25.5 231.5zM250 1345l297 347h149l291 -346l-103 -44l-263 263l-274 -263zM275 589 q0 -100 19.5 -185.5t58.5 -153.5t104 -107t149 -40q162 -2 252 120.5t91 337.5q0 100 -19.5 184.5t-59 149.5t-103.5 102t-147 38q-162 2 -253 -115.5t-92 -330.5z" />
<glyph unicode="&#xf5;" horiz-adv-x="1223" d="M105 591q4 266 148.5 415.5t369.5 149.5q104 0 188 -32t141.5 -87t95.5 -131.5t54.5 -164.5t15.5 -187q-4 -266 -147 -418t-369 -152q-131 0 -230 49t-156.5 134.5t-85 192t-25.5 231.5zM208 1462q34 70 105 123t154 53q46 0 83.5 -15t62 -37t46.5 -44t50.5 -37t61.5 -15 q104 0 192 104l67 -56q-38 -74 -106.5 -124.5t-152.5 -50.5q-49 0 -87 15.5t-62 37.5t-46 43.5t-49.5 37t-61.5 15.5q-101 0 -191 -104zM275 589q0 -100 19.5 -185.5t58.5 -153.5t104 -107t149 -40q162 -2 252 120.5t91 337.5q0 100 -19.5 184.5t-59 149.5t-103.5 102 t-147 38q-162 2 -253 -115.5t-92 -330.5z" />
<glyph unicode="&#xf6;" horiz-adv-x="1223" d="M105 591q4 266 148.5 415.5t369.5 149.5q104 0 188 -32t141.5 -87t95.5 -131.5t54.5 -164.5t15.5 -187q-4 -266 -147 -418t-369 -152q-131 0 -230 49t-156.5 134.5t-85 192t-25.5 231.5zM275 589q0 -100 19.5 -185.5t58.5 -153.5t104 -107t149 -40q162 -2 252 120.5 t91 337.5q0 100 -19.5 184.5t-59 149.5t-103.5 102t-147 38q-162 2 -253 -115.5t-92 -330.5zM287 1514q0 51 36 85t82 34q99 0 99 -105q0 -54 -34.5 -87t-82.5 -33q-43 0 -71.5 28t-28.5 78zM739 1514q0 51 35.5 85t81.5 34q50 0 74.5 -28t24.5 -77q0 -54 -34.5 -87 t-82.5 -33q-43 0 -71 28.5t-28 77.5z" />
<glyph unicode="&#xf7;" horiz-adv-x="1393" d="M232 709v130h929v-130h-929zM586 373q0 55 37.5 91.5t86.5 36.5q53 0 80.5 -30.5t27.5 -81.5q0 -57 -36.5 -92.5t-88.5 -35.5q-45 0 -76 30t-31 82zM587 1170q0 55 37.5 92t86.5 37q53 0 80.5 -31t27.5 -82q0 -57 -37 -92.5t-88 -35.5q-46 0 -76.5 30t-30.5 82z" />
<glyph unicode="&#xf8;" horiz-adv-x="1225" d="M103 591q4 266 149.5 415.5t371.5 149.5q67 0 128 -14l65 194l96 -28l-67 -198q141 -66 209.5 -214t66.5 -342q-3 -178 -71.5 -308t-184 -196t-263.5 -66q-68 0 -130 14l-65 -193l-96 27l66 198q-142 67 -209.5 216.5t-65.5 344.5zM273 589q-1 -139 37 -250.5t114 -172.5 l287 855q-37 12 -90 14q-163 2 -255 -115.5t-93 -330.5zM513 117q44 -14 94 -14q162 -2 253 120.5t92 337.5q0 138 -38 246.5t-113 167.5z" />
<glyph unicode="&#xf9;" horiz-adv-x="1249" d="M183 471v669h166v-676q0 -108 11 -174t40 -104t71 -51t112 -13q81 0 170.5 33t143.5 74v911h167v-1152h-64q-45 0 -64.5 13t-19.5 55v61q-82 -57 -192 -95t-207 -38q-62 0 -111 12t-84 33.5t-60 56t-40 72.5t-24 90.5t-12 104t-3 118.5zM292 1678l120 103 q93 -121 337 -398l-85 -68q-75 50 -194.5 165t-177.5 198z" />
<glyph unicode="&#xfa;" horiz-adv-x="1249" d="M183 471v669h166v-676q0 -108 11 -174t40 -104t71 -51t112 -13q81 0 170.5 33t143.5 74v911h167v-1152h-64q-45 0 -64.5 13t-19.5 55v61q-82 -57 -192 -95t-207 -38q-62 0 -111 12t-84 33.5t-60 56t-40 72.5t-24 90.5t-12 104t-3 118.5zM521 1383q233 254 337 398 l120 -103q-49 -73 -175.5 -196t-195.5 -167z" />
<glyph unicode="&#xfb;" horiz-adv-x="1249" d="M183 471v669h166v-676q0 -108 11 -174t40 -104t71 -51t112 -13q81 0 170.5 33t143.5 74v911h167v-1152h-64q-45 0 -64.5 13t-19.5 55v61q-82 -57 -192 -95t-207 -38q-62 0 -111 12t-84 33.5t-60 56t-40 72.5t-24 90.5t-12 104t-3 118.5zM272 1345l297 347h149l291 -346 l-103 -44l-263 263l-274 -263z" />
<glyph unicode="&#xfc;" horiz-adv-x="1249" d="M183 471v669h166v-676q0 -108 11 -174t40 -104t71 -51t112 -13q81 0 170.5 33t143.5 74v911h167v-1152h-64q-45 0 -64.5 13t-19.5 55v61q-82 -57 -192 -95t-207 -38q-62 0 -111 12t-84 33.5t-60 56t-40 72.5t-24 90.5t-12 104t-3 118.5zM309 1514q0 51 36 85t82 34 q99 0 99 -105q0 -54 -34.5 -87t-82.5 -33q-43 0 -71.5 28t-28.5 78zM761 1514q0 51 35.5 85t81.5 34q50 0 74.5 -28t24.5 -77q0 -54 -34.5 -87t-82.5 -33q-43 0 -71 28.5t-28 77.5z" />
<glyph unicode="&#xfd;" horiz-adv-x="1107" d="M56 1140h178l274 -782l76 -224l66 224l237 782h180l-392 -1169q-69 -209 -150 -321.5t-191 -143.5q-54 -13 -103 -13q-26 0 -64.5 4.5t-46.5 9.5v137q38 -12 99 -12q220 0 314 368h-49zM461 1383q233 254 337 398l120 -103q-49 -73 -175.5 -196t-195.5 -167z" />
<glyph unicode="&#xfe;" horiz-adv-x="1248" d="M188 -507v2168h167v-475l-7 -170q145 140 347 140q95 0 175.5 -34.5t142.5 -100t97 -171t35 -238.5q0 -280 -159 -454.5t-415 -174.5q-105 0 -226 27l10 -161v-356h-167zM355 155q29 -22 92.5 -35.5t141.5 -13.5q77 0 145.5 30.5t122 89t85.5 152.5t33 212 q2 212 -81.5 323.5t-243.5 111.5q-87 0 -166 -35t-129 -81v-754z" />
<glyph unicode="&#xff;" horiz-adv-x="1107" d="M56 1140h178l274 -782l76 -224l66 224l237 782h180l-392 -1169q-69 -209 -150 -321.5t-191 -143.5q-54 -13 -103 -13q-26 0 -64.5 4.5t-46.5 9.5v137q38 -12 99 -12q220 0 314 368h-49zM248 1514q0 51 36 85t82 34q99 0 99 -105q0 -54 -34.5 -87t-82.5 -33q-44 0 -72 28 t-28 78zM700 1514q0 51 35.5 85t81.5 34q50 0 74.5 -28t24.5 -77q0 -54 -34.5 -87t-82.5 -33q-43 0 -71 28.5t-28 77.5z" />
<glyph unicode="&#x152;" horiz-adv-x="2057" d="M110 764q3 185 57 331t148.5 240.5t221 146t279.5 56.5q160 4 278 -66v50h823v-131h-654v-539h485v-132h-485v-586h728v-134h-897v74q-130 -86 -308 -90q-206 -4 -362.5 96.5t-237 279t-76.5 404.5zM280 755q0 -104 20.5 -199t63 -176t102.5 -141t144 -93.5t183 -33.5 q179 0 301 106v1105q-110 86 -282 86q-82 0 -158.5 -24t-144.5 -76t-119 -127t-80.5 -185t-29.5 -242z" />
<glyph unicode="&#x153;" horiz-adv-x="1979" d="M105 591q3 177 73 306.5t185.5 194t262.5 64.5q289 0 415 -236q64 111 172 172.5t252 63.5q181 2 292.5 -115.5t116.5 -312.5q0 -128 -8 -175h-748q0 -27 1 -40q6 -209 105.5 -305.5t267.5 -96.5q77 0 172.5 23t140.5 52l33 -97q-56 -46 -167.5 -75.5t-219.5 -29.5 q-295 0 -421 231q-67 -112 -178 -171.5t-250 -59.5q-131 0 -230 49t-156.5 134.5t-85 192t-25.5 231.5zM275 589q-1 -135 33 -241.5t110.5 -175t188.5 -69.5q163 -2 255 120.5t93 337.5q1 135 -34 239t-112 169t-187 66q-161 2 -253.5 -115.5t-93.5 -330.5zM1125 665h592 q4 81 -8 146.5t-41.5 117t-84 80t-129.5 28.5q-133 0 -220.5 -91.5t-108.5 -280.5z" />
<glyph unicode="&#x178;" horiz-adv-x="1249" d="M31 1522h181l374 -701l51 -115l44 115l359 701h179l-499 -935v-587h-172v584zM294 1798q0 54 36.5 89t84.5 35q52 0 78 -29t26 -80q0 -56 -35 -89.5t-86 -33.5q-45 0 -74.5 28.5t-29.5 79.5zM773 1798q0 54 36.5 89t84.5 35q52 0 78.5 -29t26.5 -80q0 -56 -35.5 -89.5 t-85.5 -33.5q-45 0 -75 28.5t-30 79.5z" />
<glyph unicode="&#x2c6;" horiz-adv-x="833" d="M48 1345l297 347h149l291 -346l-103 -44l-263 263l-274 -263z" />
<glyph unicode="&#x2dc;" horiz-adv-x="917" d="M48 1462q34 70 105 123t154 53q46 0 83.5 -15t62 -37t46.5 -44t50.5 -37t61.5 -15q104 0 192 104l67 -56q-38 -74 -106.5 -124.5t-152.5 -50.5q-49 0 -87 15.5t-62 37.5t-46 43.5t-49.5 37t-61.5 15.5q-101 0 -191 -104z" />
<glyph unicode="&#x2000;" horiz-adv-x="991" />
<glyph unicode="&#x2001;" horiz-adv-x="1982" />
<glyph unicode="&#x2002;" horiz-adv-x="991" />
<glyph unicode="&#x2003;" horiz-adv-x="1982" />
<glyph unicode="&#x2004;" horiz-adv-x="660" />
<glyph unicode="&#x2005;" horiz-adv-x="495" />
<glyph unicode="&#x2006;" horiz-adv-x="330" />
<glyph unicode="&#x2007;" horiz-adv-x="330" />
<glyph unicode="&#x2008;" horiz-adv-x="247" />
<glyph unicode="&#x2009;" horiz-adv-x="396" />
<glyph unicode="&#x200a;" horiz-adv-x="110" />
<glyph unicode="&#x2010;" horiz-adv-x="1350" d="M247 705v135h856v-135h-856z" />
<glyph unicode="&#x2011;" horiz-adv-x="1350" d="M247 705v135h856v-135h-856z" />
<glyph unicode="&#x2012;" horiz-adv-x="1350" d="M247 705v135h856v-135h-856z" />
<glyph unicode="&#x2013;" horiz-adv-x="1692" d="M240 705v135h1212v-135h-1212z" />
<glyph unicode="&#x2014;" horiz-adv-x="2343" d="M240 705v135h1863v-135h-1863z" />
<glyph unicode="&#x2018;" horiz-adv-x="498" d="M101 1307q0 78 21 151t54 126.5t67 91.5t68 61l72 -47v-25q-47 -38 -86 -132t-39 -195q0 -75 36 -143t86 -89v-47l-86 -96q-88 30 -140.5 126.5t-52.5 217.5z" />
<glyph unicode="&#x2019;" horiz-adv-x="498" d="M123 1010v25q40 40 75 133.5t35 193.5q0 78 -31.5 148t-75.5 92v47l108 88q73 -31 114.5 -113.5t41.5 -199.5t-34.5 -218t-75.5 -156t-85 -87z" />
<glyph unicode="&#x201a;" horiz-adv-x="498" d="M123 -464q40 40 75 133.5t35 193.5q0 78 -31.5 148t-75.5 92v47l108 88q73 -31 114.5 -113.5t41.5 -199.5t-34.5 -218t-75.5 -156t-85 -87l-72 47v25z" />
<glyph unicode="&#x201c;" horiz-adv-x="981" d="M101 1307q0 78 21 151t54 126.5t67 91.5t68 61l72 -47v-25q-47 -38 -86 -132t-39 -195q0 -75 36 -143t86 -89v-47l-86 -96q-88 30 -140.5 126.5t-52.5 217.5zM589 1307q0 78 21 151t54 126.5t67 91.5t68 61l72 -47v-25q-47 -38 -86 -132t-39 -195q0 -75 36 -143t86 -89 v-47l-86 -96q-88 30 -140.5 126.5t-52.5 217.5z" />
<glyph unicode="&#x201d;" horiz-adv-x="981" d="M123 1010v25q40 40 75 133.5t35 193.5q0 78 -31.5 148t-75.5 92v47l108 88q73 -31 114.5 -113.5t41.5 -199.5t-34.5 -218t-75.5 -156t-85 -87zM611 1010v25q40 40 75 133.5t35 193.5q0 78 -31.5 148t-75.5 92v47l108 88q73 -31 114.5 -113.5t41.5 -199.5t-34.5 -218 t-75.5 -156t-85 -87z" />
<glyph unicode="&#x201e;" horiz-adv-x="981" d="M123 -445q40 40 75 133.5t35 193.5q0 78 -31.5 148t-75.5 92v47l108 88q73 -31 114.5 -113.5t41.5 -199.5t-34.5 -218t-75.5 -156t-85 -87l-72 47v25zM609 -445q40 40 75 133.5t35 193.5q0 78 -31.5 148t-75.5 92v47l108 88q73 -31 114.5 -113.5t41.5 -199.5t-34.5 -218 t-75.5 -156t-85 -87l-72 47v25z" />
<glyph unicode="&#x2022;" horiz-adv-x="852" d="M255 724q4 75 56.5 126.5t122.5 51.5q71 0 119 -50.5t44 -123.5q-3 -74 -55.5 -127t-123.5 -53q-70 0 -118.5 52.5t-44.5 123.5z" />
<glyph unicode="&#x2026;" horiz-adv-x="1983" d="M214 106q-1 56 36 97t86 41q51 0 80 -35t31 -86q1 -58 -35.5 -98.5t-87.5 -40.5q-44 0 -76.5 35t-33.5 87zM875 106q-1 55 36 96.5t85 41.5q52 0 81 -35t30 -86q2 -58 -34.5 -98.5t-87.5 -40.5q-44 0 -76.5 35t-33.5 87zM1536 106q-1 55 36 96.5t86 41.5q51 0 80 -35 t31 -86q1 -58 -35.5 -98.5t-86.5 -40.5q-45 0 -77.5 34.5t-33.5 87.5z" />
<glyph unicode="&#x202f;" horiz-adv-x="396" />
<glyph unicode="&#x2039;" horiz-adv-x="1204" d="M245 542v141l653 448l44 -125l-534 -391l534 -388l-44 -121z" />
<glyph unicode="&#x203a;" horiz-adv-x="1204" d="M262 227l534 388l-534 391l44 125l653 -448v-141l-653 -436z" />
<glyph unicode="&#x205f;" horiz-adv-x="495" />
<glyph unicode="&#x20ac;" horiz-adv-x="1522" d="M119 527v110h194q-2 54 -2 83q0 94 12 179h-173v109h193q61 247 225 385t405 145q91 3 155.5 -6t138 -33t75.5 -24l-41 -134q-128 69 -332 70q-163 0 -284 -102t-167 -301h587v-109h-605q-7 -59 -7 -132q0 -60 5 -130h574v-110h-562q70 -432 430 -432q221 0 385 92 l46 -126q-25 -4 -67.5 -19.5t-83 -30.5t-121.5 -27t-180 -12q-250 0 -401.5 148t-192.5 407h-206z" />
<glyph unicode="&#x2122;" horiz-adv-x="2218" d="M189 1428v118h685v-118l-276 2v-663h-140v663zM1033 767l37 779h221l188 -474l40 -139l33 138l177 475h208l67 -779h-136l-35 520l-9 169l-48 -136l-211 -558h-91l-223 542l-62 153l-3 -152l-23 -538h-130z" />
<glyph unicode="&#x25fc;" horiz-adv-x="1140" d="M0 0v1140h1140v-1140h-1140z" />
</font>
</defs>
</svg>
